Скачать через торрент музыку TNT - Intuition бесплатно без регистрации torrent

Если у вас наблюдаются проблемы со скриншотами, переходом по ссылками, скачиванием торрентов - проблемы в блокировщике рекламы AdBlock. #хорошегоДня!


Статистика раздачи
Размер:  292 MB   |    Зарегистрирован:  5 лет   |    .torrent скачан:  21 раз   |   
Раздают:  1  
   
Загрузка...
 
Автор Сообщение

Umakiro

avatar Umakiro


TNT / Intuition (Japanese Ed.)

Жанр: melodic metal
Страна-производитель диска: Japan
Год издания: 1989
Издатель (лейбл): Mercury/Nippon
Номер по каталогу: 28PD-578
Страна: Norway
Аудиокодек: FLAC (*.flac)
Тип рипа: image+.cue
Битрейт аудио: lossless
Продолжительность: 0:41:39.37
Источник (релизер): spiralarch-MMT ( ему спасибо )
Наличие сканов в содержимом раздачи: да
Треклист:
01. A Nation Free (intro) [0:01:10.40]
02. Caught Between The Tigers [0:04:16.10]
03. Tonight I'm Falling [0:03:55.45]
04. End Of The Line [0:04:21.08]
05. Intuition [0:04:19.15]
06. Forever Shine On [0:04:46.37]
07. Learn To Love [0:03:38.60]
08. Ordinary Lover [0:00:53.30]
09. Take Me Down (Fallen Angel) [0:04:28.18]
10. Wisdom [0:05:04.00]
11. Electric Dancer (bonus) [0:04:43.37]
Exact Audio Copy V1.0 beta 1 from 15. November 2010

EAC extraction logfile from 15. August 2012, 14:40

TNT / Intuition (Japan)

Used drive : Optiarc DVD RW AD-7240S Adapter: 2 ID: 0

Read mode : SecureUtilize accurate stream : YesDefeat audio cache : YesMake use of C2 pointers : No

Read offset correction : 48Overread into Lead-In and Lead-Out : NoFill up missing offset samples with silence : YesDelete leading and trailing silent blocks : NoNull samples used in CRC calculations : YesUsed interface : Native Win32 interface for Win NT & 2000

Used output format : Internal WAV RoutinesSample format : 44.100 Hz; 16 Bit; Stereo

TOC of the extracted CD

Track | Start | Length | Start sector | End sector --------------------------------------------------------- 1 | 0:00.37 | 1:10.40 | 37 | 5326 2 | 1:11.02 | 4:16.10 | 5327 | 24536 3 | 5:27.12 | 3:55.45 | 24537 | 42206 4 | 9:22.57 | 4:21.08 | 42207 | 61789 5 | 13:43.65 | 4:19.15 | 61790 | 81229 6 | 18:03.05 | 4:46.37 | 81230 | 102716 7 | 22:49.42 | 3:38.60 | 102717 | 119126 8 | 26:28.27 | 0:53.30 | 119127 | 123131 9 | 27:21.57 | 4:28.18 | 123132 | 143249 10 | 31:50.00 | 5:04.00 | 143250 | 166049 11 | 36:54.00 | 4:43.37 | 166050 | 187311

Range status and errors

Selected range

Filename D:\spiralarch\TNT - Intuition (Japan).wav

Peak level 100.0 % Extraction speed 0.4 X Range quality 100.0 % Copy CRC 7F2CD99E Copy OK

No errors occurred

AccurateRip summary

Track 1 accurately ripped (confidence 2) [B560EAA1]Track 2 accurately ripped (confidence 2) [B50D8390]Track 3 accurately ripped (confidence 2) [7087D5E9]Track 4 accurately ripped (confidence 2) [B869DAE1]Track 5 accurately ripped (confidence 2) [2BEF9D35]Track 6 accurately ripped (confidence 2) [44ACCF79]Track 7 accurately ripped (confidence 2) [12C5B501]Track 8 accurately ripped (confidence 2) [5906B050]Track 9 accurately ripped (confidence 2) [3F2196FF]Track 10 accurately ripped (confidence 2) [7817EA14]Track 11 accurately ripped (confidence 2) [797487B7]

All tracks accurately ripped

End of status report

==== Log checksum 585908FB7B2BA5CE9E59CB60C2A410646F300DBE76593FC6E6F03BC107302E16 ====
TNT was one of my favourite bands in the 80's. As a matter of fact shortly after I heard that Le Tekro had a "quarter stepped" guitar I went to my local guitar shop with an old "axe" of mine and did the same thing.

This album is one of my favourites that I had to review. These guys weren't what I would consider one of the heaviest acts around but they were definitely in the "shredder class" but with great vocals and great harmonies.

Tracks that stand out for me are "Caught Between The Tigers", "End Of The Line", "Take Me Down" and a great barbershop quartet song "Ordinary Lover".

I attempted to re-listen to this album on cassette only to find that it is horribly stretched due to heavy use when it first came released in 1989.

Definitely an under rated band with under rated music that I am happy to say has released a new CD this year.

Definitely a great band and a smokin' album that if you writing about it gave me a chance to relive my teens.

AWESOME! AWESOME! AWESOME! AWESOME!

The Metal Observer
Tony Harnell - lead, harmony and backing vocals
Ronni LeTekrø - all guitars, 1/4 stepper guitar, lead vocals on 8
Morty Black - bass and pedal synthesizer
Kenneth Odiin - drums and percussion
******
Kjetil Bjerkestrand - keyboards
Joe Lynn Turner - backing vocals


Трекер:  [ 20-Авг-2012 07:31 ]

  

Скачать .torrent

Размер .torrent файла 13 KB


Размер: 292 MB
Хэш (hash) релиза: 330d20535bae09efe6b8d9a07dd46cf601b22ec3

Торренты, похожие на TNT - Intuition скачать торрент

Форум Название Автор Размер S L Добавлен
Rосk | Mеtаl | Аltеrnаtivе, Рunk, Indереndеnt (losslеss) ·· (Hard Rock) TNT - Intuition (SHM CD) - 1989, FLAC (image+.cue), lossless Galfimbul 297713799284 MB 0 0 1297876252

20:10

16-Фев-11

Еще никто не оставлял запись к записи скачать торрент TNT - Intuition . Будь первым!

!Обратная связь