Скачать через торрент музыку Journey - Raised On Radio бесплатно без регистрации torrent

Если у вас наблюдаются проблемы со скриншотами, переходом по ссылками, скачиванием торрентов - проблемы в блокировщике рекламы AdBlock. #хорошегоДня!


Статистика раздачи
Размер:  450 MB   |    Зарегистрирован:  5 лет   |    .torrent скачан:  22 раза   |   
Раздают:  1  
   
Загрузка...
 
Автор Сообщение

Umakiro

avatar Umakiro


Journey / Raised On Radio (Mini LP CD JAPAN MHCP-1173 © 2006)-1986

Жанр: AOR
Страна-производитель диска: Japan
Год издания: 2006
Издатель (лейбл): Sony
Номер по каталогу: MHCP-1173
Страна: U.S.A
Аудиокодек: APE (*.ape)
Тип рипа: image+.cue
Битрейт аудио: lossless
Источник (релизер): рип собственный, диск из личной коллекции.
Наличие сканов в содержимом раздачи: да
Треклист:
1. Girl Can't Help It (3:50)
2. Positive Touch (4:17)
3. Suzanne (3:39)
4. Be Good To Yourself (3:51)
5. Once You Love Somebody (4:40)
6. Happy To Give (3:50)
7. Raised On Radio (3:49)
8. I'll Be Alright Without You (4:50)
9. It Could Have Been You (3:37)
10. The Eyes Of A Woman (4:33)
11. Why Can't This Night Go On Forever (3:41)
12. Girl Can't Help It
(Live Video Mix) (4:18)
13. I'll Be Alright Without You
(Live Video Mix) (5:01)

Tracks 12 and 13 are bonus tracks on the 2006 CD reissue.
Exact Audio Copy V1.0 beta 1 from 15. November 2010

EAC extraction logfile from 17. August 2012, 18:42

Journey / Raised On Radio +2

Used drive : Optiarc DVD RW AD-7540A Adapter: 0 ID: 0

Read mode : SecureUtilize accurate stream : YesDefeat audio cache : YesMake use of C2 pointers : No

Read offset correction : 48Overread into Lead-In and Lead-Out : NoFill up missing offset samples with silence : YesDelete leading and trailing silent blocks : NoNull samples used in CRC calculations : YesUsed interface : Native Win32 interface for Win NT & 2000

Used output format : Monkey's Audio Lossless Encoder v3.99 DLLSample format : Fast Lossless Compression

TOC of the extracted CD

Track | Start | Length | Start sector | End sector --------------------------------------------------------- 1 | 0:00.00 | 3:52.39 | 0 | 17438 2 | 3:52.39 | 4:20.03 | 17439 | 36941 3 | 8:12.42 | 3:42.11 | 36942 | 53602 4 | 11:54.53 | 3:55.38 | 53603 | 71265 5 | 15:50.16 | 4:43.52 | 71266 | 92542 6 | 20:33.68 | 3:54.34 | 92543 | 110126 7 | 24:28.27 | 3:53.25 | 110127 | 127626 8 | 28:21.52 | 4:54.32 | 127627 | 149708 9 | 33:16.09 | 3:41.12 | 149709 | 166295 10 | 36:57.21 | 4:36.61 | 166296 | 187056 11 | 41:34.07 | 3:45.21 | 187057 | 203952 12 | 45:19.28 | 4:21.43 | 203953 | 223570 13 | 49:40.71 | 5:01.57 | 223571 | 246202

Range status and errors

Selected range

Filename C:\Users\user\Desktop\Journey - Raised On Radio.ape

Peak level 100.0 % Extraction speed 0.1 X Range quality 100.0 % Test CRC C9BEB3AB Copy CRC C9BEB3AB Copy OK

No errors occurred

AccurateRip summary

Track 1 accurately ripped (confidence 4) [B11616C7]Track 2 accurately ripped (confidence 4) [A5DC0676]Track 3 accurately ripped (confidence 4) [966E0E1C]Track 4 accurately ripped (confidence 4) [6EA7CF30]Track 5 accurately ripped (confidence 4) [654647F9]Track 6 accurately ripped (confidence 4) [90BB1171]Track 7 accurately ripped (confidence 4) [F0A6BF6E]Track 8 accurately ripped (confidence 4) [3817D08C]Track 9 accurately ripped (confidence 4) [BFBF2F47]Track 10 accurately ripped (confidence 4) [AA214E88]Track 11 accurately ripped (confidence 4) [1AEC00C7]Track 12 accurately ripped (confidence 4) [98A49F4D]Track 13 accurately ripped (confidence 3) [F448387D]

All tracks accurately ripped

End of status report

==== Log checksum DFCFB60C73FA4B954D0707F3D56F013A1B5095E3BB1C11F0FAA8CDEC10B54B95 ====
Девятый студийный альбом американской группы Journey, выпущенный в феврале 1986 года.
Эта пластинка - эталон жанра AOR и одна из лучших работ Journey. Прослушивание вызывает самые положительные эмоции и идеально создает позитивное настроение, а от общего звучания альбома веет неповторимыми 80-ми..
Так, классическая и немного меланхоличная "Girl Can't Help It" начинается с характерных клавиш и является отличной открывающей композицией, погружающей в атмосферу альбома. "Positive Touch" отлично подойдет для спокойной вечеринки, очень трогательная и нежная "Suzanne" о чувствах лирического героя, которые он испытывает к далекой кинозвезде.
В заряженной светлым оптимизмом "Bee Good to Yourself" звенят и переливаются отголоски "Don't Stop Belivein"; "Once You Love Somebody" и "I'll Be Allright without You" - спокойные композиции, заставляющие погрузиться в воспоминания, а восхитительные баллады "Happy to Give" и "Why Can't This Night Go On Forever" способны затронуть самые потаённые струны в душе не только у тех, кто решил впервые ознакомиться с этим альбомом, но и у тех, кто уже не первый раз ставит компакт-диск в проигрыватель.
Что касается техники музыкантов, то она как всегда достойна высоких похвал, особо хочется отметить интересный, темпераментный бас и просто идеальное звучание клавишных.
Journey записали очередной великолепный диск. Он не содержит проходных и скучных песен, полон отличных музыкальных идей, атмосферен и чувственен.
Исключительно светлый, добрый альбом. Отлично подойдет для романтических вечеров при свечах, а также для тех, кто хотел бы успокоиться и на время отойти от жизненных проблем и переживаний.
Neal Schon - guitars, backing vocals; keyboard on 10, guitar synth
Steve Perry - lead vocals
Jonathan Cain - keyboards, backing vocals
Randy Jackson - bass, backing vocals
Larrie Londin - drums, percussion
Bob Glaub - bass on 2, 10 and 11.
Steve Smith - drums on 2, 10 and 11.
Mike Baird - drums on 12 and 13 (2006 CD reissue only)
Dan Hull - saxophone on 2 & 7; harp on 7
Steve Minkins - percussion on 3


Трекер:  [ 20-Авг-2012 07:31 ]

  

Скачать .torrent

Размер .torrent файла 18 KB


Размер: 450 MB
Хэш (hash) релиза: b11d1c6788a979bb49719c5a175d457913832a9d

Еще никто не оставлял запись к записи скачать торрент Journey - Raised On Radio . Будь первым!

!Обратная связь