Скачать через торрент музыку Truk - Truk Tracks бесплатно без регистрации torrent

Если у вас наблюдаются проблемы со скриншотами, переходом по ссылками, скачиванием торрентов - проблемы в блокировщике рекламы AdBlock. #хорошегоДня!


Статистика раздачи
Размер:  86 MB   |    Зарегистрирован:  5 лет 2 месяца   |    .torrent скачан:  13 раз   |   
Раздают:  1  
   
Загрузка...
 
Автор Сообщение

Galfimbul

avatar Galfimbul


Truk / Truk Tracks

Жанр: Hard Rock/Prog Rock
Страна: USA
Label: Columbia – C 30005
Год издания: 1971
Аудиокодек: MP3
Тип рипа: tracks
Битрейт аудио: 320 kbps
Продолжительность: 36:23
Наличие сканов в содержимом раздачи: да
Треклист:
A1 - Country Woman (4:31)
A2 - Got To Find A Reason (3:01)
A3 - Pretty Lady (3:56)
A4 - Winter's Coming On (2:44)
A5 - Sun Castle Magic (5:12)
B1 - Yellow Cab Man (3:04)
B2 - Five Is Together (3:29)
B3 - You (3:57)
B4 - Silence Ending (2:40)
B5 - Max (3:48)
foobar2000 1.1.14 beta 3 / Dynamic Range Meter 1.1.1
log date: 2012-08-19 14:18:33

--------------------------------------------------------------------------------
Analyzed: Truk / Truk Tracks
--------------------------------------------------------------------------------

DR Peak RMS Duration Track
--------------------------------------------------------------------------------
DR11 -4.42 dB -18.39 dB 4:31 A1-Country Woman
DR11 -4.24 dB -17.05 dB 3:29 A2-Got To Find A Reason
DR13 -4.78 dB -20.10 dB 3:01 A3-Pretty Lady
DR12 -0.20 dB -17.45 dB 3:48 A4-Winter's Coming On
DR11 -4.17 dB -17.79 dB 3:56 A5-Sun Castle Magic
DR13 -2.97 dB -18.10 dB 2:40 B1-Yellow Cab Man
DR12 -3.40 dB -18.98 dB 5:12 B2-Five Is Together
DR12 -3.88 dB -18.60 dB 2:44 B3-You
DR11 -3.56 dB -17.13 dB 3:04 B4-Silence Ending
DR9 -4.70 dB -17.54 dB 3:57 B5-Max
--------------------------------------------------------------------------------

Number of tracks: 10
Official DR value: DR12

Samplerate: 44100 Hz
Channels: 2
Bitrate: 320 kbps
Codec: MP3
================================================================================


Трекер:  [ 19-Авг-2012 12:51 ]

  

Скачать .torrent

Размер .torrent файла 15 KB


Размер: 86 MB
Хэш (hash) релиза: d201f7a6f5e9cd3b731c67113d1a98bb1684b9e9

Торренты, похожие на Truk - Truk Tracks скачать торрент

Форум Название Автор Размер S L Добавлен
Отечественный Rap, Hip-Hop, R'n'B (mp3) ·· (Rap) Le Truk (Децл, ДецлЪ) - Дискография - 2000 - 2009, MP3 (tracks), 64 - 320 kbps o33ml 11155969351.04 GB 0 0 1291143617

22:00

30-Ноя-10

Еще никто не оставлял запись к записи скачать торрент Truk - Truk Tracks . Будь первым!

!Обратная связь