Скачать через торрент музыку Birth Control - Backdoor Possibilities + Sartory Live 1976 бесплатно без регистрации torrent

Если у вас наблюдаются проблемы со скриншотами, переходом по ссылками, скачиванием торрентов - проблемы в блокировщике рекламы AdBlock. #хорошегоДня!


Статистика раздачи
Размер:  989 MB   |    Зарегистрирован:  5 лет   |    .torrent скачан:  12 раз   |   
Раздают:  1  
   
Загрузка...
 
Автор Сообщение

Umakiro

avatar Umakiro


Birth Control / Backdoor Possibilities + Sartory Live

Страна исполнителя: Germany
Жанр: Progressive, Krautrock
Страна-производитель диска: Made in E.U.
Год издания: 2011
Издатель (лейбл): Boutique
Номер по каталогу: BOUCD 6612

Аудиокодек: FLAC (*.flac)
Тип рипа: image+.cue
Битрейт аудио: lossless
Продолжительность: 1:14:06 + 1:10:58
Источник (релизер): Собственный рип
Наличие сканов в содержимом раздачи: да
Треклист:
One First of April
1. Prologue,
2. Physical and Mental Short Circuit,
3. Subterranean Escape,
BeeDeePees
4. Film of Life,
5. Childhood Flash-Back,
6. Legal Labyrinth,
7. Futile Prayer,
La Ciguena De Zaragoza
8. The Farrockaway Ropedancer,
9. Le Moineau de Paris,
10. Cha Cha D'Amour,
11. Behind Grey Walls,
12. No Time To Die,
Bonus
13. Meta Ventilator (live),
14. Gamma Ray (live),
15. Long Tall Sally (live);
1. Plastic People,
2. One First of April,
3. BeeDeePees: Backdoor Possibilities,
4. My Mind,
5. La Ciguena De Zaragoza,
6. Behind Grey Walls,
7. Keyboard Solo/No Time To Die/Guitar Solo
Exact Audio Copy V1.0 beta 1 from 15. November 2010

EAC extraction logfile from 18. August 2012, 9:40

Birth Control / Backdoor Possibilities

Used drive : Optiarc DVD RW AD-7263S Adapter: 3 ID: 0

Read mode : Secure
Utilize accurate stream : Yes
Defeat audio cache : Yes
Make use of C2 pointers : No

Read offset correction : 48
Overread into Lead-In and Lead-Out : No
Fill up missing offset samples with silence : Yes
Delete leading and trailing silent blocks : No
Null samples used in CRC calculations : Yes
Used interface : Native Win32 interface for Win NT & 2000

Used output format : User Defined Encoder
Selected bitrate : 32 kBit/s
Quality : High
Add ID3 tag : No
Command line compressor : C:\Program Files\Exact Audio Copy\Flac\flac.exe
Additional command line options : -T "DATE=%y" -T "GENRE=%m" -8 -V %s

TOC of the extracted CD

Track | Start | Length | Start sector | End sector
---------------------------------------------------------
1 | 0:00.00 | 0:57.06 | 0 | 4280
2 | 0:57.06 | 5:28.58 | 4281 | 28938
3 | 6:25.64 | 1:10.16 | 28939 | 34204
4 | 7:36.05 | 5:37.19 | 34205 | 59498
5 | 13:13.24 | 0:52.33 | 59499 | 63431
6 | 14:05.57 | 2:09.44 | 63432 | 73150
7 | 16:15.26 | 5:52.60 | 73151 | 99610
8 | 22:08.11 | 4:52.40 | 99611 | 121550
9 | 27:00.51 | 1:56.72 | 121551 | 130322
10 | 28:57.48 | 1:28.07 | 130323 | 136929
11 | 30:25.55 | 6:50.59 | 136930 | 167738
12 | 37:16.39 | 6:07.32 | 167739 | 195295
13 | 43:23.71 | 15:29.04 | 195296 | 264974
14 | 58:53.00 | 10:14.04 | 264975 | 311028
15 | 69:07.04 | 4:58.55 | 311029 | 333433

Range status and errors

Selected range

Filename C:\Documents and Settings\maxim\Мои документы\Birth Control - Backdoor Possibilities.wav

Peak level 96.6 %
Extraction speed 0.3 X
Range quality 100.0 %
Test CRC 243DD3C4
Copy CRC 243DD3C4
Copy OK

No errors occurred

AccurateRip summary

Track 1 accurately ripped (confidence 2) [D6979430]
Track 2 accurately ripped (confidence 2) [CFA7DBDF]
Track 3 accurately ripped (confidence 2) [C9614772]
Track 4 accurately ripped (confidence 2) [9F800575]
Track 5 accurately ripped (confidence 2) [D93E7156]
Track 6 accurately ripped (confidence 2) [E1C23936]
Track 7 accurately ripped (confidence 2) [A7CC8BFD]
Track 8 accurately ripped (confidence 2) [02540A58]
Track 9 accurately ripped (confidence 2) [579A0008]
Track 10 accurately ripped (confidence 2) [24D3C0B0]
Track 11 accurately ripped (confidence 2) [94801AC2]
Track 12 accurately ripped (confidence 2) [DD773620]
Track 13 accurately ripped (confidence 2) [EDFFADDC]
Track 14 accurately ripped (confidence 2) [82D438D4]
Track 15 accurately ripped (confidence 2) [1A28C5ED]

All tracks accurately ripped

End of status report

==== Log checksum CC69295A6E96E7386FFEED3A4AFF57CDFA2F55A4CD0D72CDF7FA022550848AD2 ====
Exact Audio Copy V1.0 beta 1 from 15. November 2010

EAC extraction logfile from 18. August 2012, 10:22

Birth Control / Backdoor Possibilities

Used drive : Optiarc DVD RW AD-7263S Adapter: 3 ID: 0

Read mode : Secure
Utilize accurate stream : Yes
Defeat audio cache : Yes
Make use of C2 pointers : No

Read offset correction : 48
Overread into Lead-In and Lead-Out : No
Fill up missing offset samples with silence : Yes
Delete leading and trailing silent blocks : No
Null samples used in CRC calculations : Yes
Used interface : Native Win32 interface for Win NT & 2000

Used output format : User Defined Encoder
Selected bitrate : 32 kBit/s
Quality : High
Add ID3 tag : No
Command line compressor : C:\Program Files\Exact Audio Copy\Flac\flac.exe
Additional command line options : -T "DATE=%y" -T "GENRE=%m" -8 -V %s

TOC of the extracted CD

Track | Start | Length | Start sector | End sector
---------------------------------------------------------
1 | 0:00.00 | 12:00.00 | 0 | 53999
2 | 12:00.00 | 8:06.00 | 54000 | 90449
3 | 20:06.00 | 10:40.00 | 90450 | 138449
4 | 30:46.00 | 7:33.38 | 138450 | 172462
5 | 38:19.38 | 7:36.00 | 172463 | 206662
6 | 45:55.38 | 7:46.38 | 206663 | 241650
7 | 53:42.01 | 17:06.00 | 241651 | 318600

Range status and errors

Selected range

Filename C:\Documents and Settings\maxim\Мои документы\Birth Control.wav

Peak level 98.8 %
Extraction speed 1.0 X
Range quality 100.0 %
Test CRC 1A0EB6D5
Copy CRC 1A0EB6D5
Copy OK

No errors occurred

AccurateRip summary

Track 1 accurately ripped (confidence 2) [83E21E38]
Track 2 accurately ripped (confidence 2) [0CA4EADA]
Track 3 accurately ripped (confidence 2) [90A2C4D5]
Track 4 accurately ripped (confidence 2) [6300DAC8]
Track 5 accurately ripped (confidence 2) [DAECE0DB]
Track 6 accurately ripped (confidence 2) [73A19DA5]
Track 7 accurately ripped (confidence 2) [9D9DE64C]

All tracks accurately ripped

End of status report

==== Log checksum 7248DE21AB731800F2E92D906CF05FBF304B3AC5D35F55E8A1B1552ADF326BB9 ====
-----------------------

DON'T MODIFY THIS FILE

-----------------------

PERFORMER: auCDtect Task Manager, ver. 1.5.1RC4 build 1.5.1.5
Copyright (c) 2008-2010 y-soft. All rights reserved
http://y-soft.org

ANALYZER: auCDtect: CD records authenticity detector, version 0.8.2
Copyright (c) 2004 Oleg Berngardt. All rights reserved.
Copyright (c) 2004 Alexander Djourik. All rights reserved.

FILE: Birth Control - Backdoor Possibilities.flac
Size: 492262019 Hash: 9A80A51C3CE359C64E758AE890BBDD99 Accuracy: -m0
Conclusion: CDDA 100%
Signature: EB4F4877D8EACDE192C537C02475E25C86360716
-----------------------

DON'T MODIFY THIS FILE

-----------------------

PERFORMER: auCDtect Task Manager, ver. 1.5.1RC4 build 1.5.1.5
Copyright (c) 2008-2010 y-soft. All rights reserved
http://y-soft.org

ANALYZER: auCDtect: CD records authenticity detector, version 0.8.2
Copyright (c) 2004 Oleg Berngardt. All rights reserved.
Copyright (c) 2004 Alexander Djourik. All rights reserved.

FILE: Birth Control.flac
Size: 484350630 Hash: 27026D98A0DB790C7E2E600C6E1810EA Accuracy: -m0
Conclusion: CDDA 43%
Signature: 491D457510FE36C91BE5C6EF91F37E496EB68CAF
Bernd Noske - lead vocals, drums
Peter Foller - bass, vocals
Bruno Frenzel - guitar, vocals
Zeus B. Held - keyboards, vocals


Трекер:  [ 19-Авг-2012 18:59 ]

  

Скачать .torrent

Размер .torrent файла 21 KB


Размер: 989 MB
Хэш (hash) релиза: b286376a816d16bf8b1982a4ab7f0dbf76538c0e

Еще никто не оставлял запись к записи скачать торрент Birth Control - Backdoor Possibilities + Sartory Live 1976 . Будь первым!

!Обратная связь