Скачать через торрент музыку Änglagård бесплатно без регистрации torrent

Если у вас наблюдаются проблемы со скриншотами, переходом по ссылками, скачиванием торрентов - проблемы в блокировщике рекламы AdBlock. #хорошегоДня!


Статистика раздачи
Размер:  249 MB   |    Зарегистрирован:  5 лет 1 месяц   |    .torrent скачан:  32 раза   |   
Раздают:  1  
   
Загрузка...
 
Автор Сообщение

Umakiro

avatar Umakiro



Änglagård (Anglagard) / Hybris


Жанр: Symphonic Prog
Страна-производитель диска: Sweden
Год издания: 1992
Издатель (лейбл): Mellotronen
Номер по каталогу: MELLO 004
Страна: Sweden
Аудиокодек: FLAC (*.flac)
Тип рипа: tracks+.cue
Битрейт аудио: lossless
Продолжительность: 44:15
Источник (релизер): Storyteller
Наличие сканов в содержимом раздачи: нет
Треклист:
01. Jordrök (11:11)
02. Vandringar I Vilsenhet (11:57)
03. Ifrån Klarhet Till Klarhet (8:10)
04. Kung Bore (12:57)
Exact Audio Copy V0.99 prebeta 4 from 23. January 2008

EAC extraction logfile from 6. February 2009, 17:21

Дnglagеrd / Hybris

Used drive : Optiarc DVD RW AD-5170A Adapter: 0 ID: 0

Read mode : SecureUtilize accurate stream : YesDefeat audio cache : YesMake use of C2 pointers : No

Read offset correction : 48Overread into Lead-In and Lead-Out : NoFill up missing offset samples with silence : YesDelete leading and trailing silent blocks : NoNull samples used in CRC calculations : YesUsed interface : Native Win32 interface for Win NT & 2000Gap handling : Appended to previous track

Used output format : User Defined EncoderSelected bitrate : 128 kBit/sQuality : HighAdd ID3 tag : NoCommand line compressor : C:\Program Files\FLAC\flac.exeAdditional command line options : -V -8 -T "artist=%a" -T "title=%t" -T "album=%g" -T "date=%y" -T "tracknumber=%n" -T "genre=%m" %s

TOC of the extracted CD

Track | Start | Length | Start sector | End sector --------------------------------------------------------- 1 | 0:00.00 | 11:11.03 | 0 | 50327 2 | 11:11.03 | 11:57.27 | 50328 | 104129 3 | 23:08.30 | 8:09.45 | 104130 | 140849 4 | 31:18.00 | 12:57.28 | 140850 | 199152

Track 1

Filename K:\[ Torrents ]\Дnglagеrd\Hybris\01 - Jordrцk.wav

Pre-gap length 0:00:02.00

Peak level 100.0 % Track quality 100.0 % Test CRC 47B6F7C7 Copy CRC 47B6F7C7 Accurately ripped (confidence 3) [CB6922A8] Copy OK

Track 2

Filename K:\[ Torrents ]\Дnglagеrd\Hybris\02 - Vandringar I Vilsenhet.wav

Pre-gap length 0:00:01.73

Peak level 100.0 % Track quality 100.0 % Test CRC 5B6B62AF Copy CRC 5B6B62AF Accurately ripped (confidence 3) [F351CDED] Copy OK

Track 3

Filename K:\[ Torrents ]\Дnglagеrd\Hybris\03 - Ifrеn Klarhet Till Klarhet.wav

Pre-gap length 0:00:05.26

Peak level 100.0 % Track quality 99.9 % Test CRC 9A4A1F52 Copy CRC 9A4A1F52 Accurately ripped (confidence 3) [4D17268C] Copy OK

Track 4

Filename K:\[ Torrents ]\Дnglagеrd\Hybris\04 - Kung Bore.wav

Pre-gap length 0:00:06.29

Peak level 100.0 % Track quality 99.9 % Test CRC 494D2610 Copy CRC 494D2610 Accurately ripped (confidence 3) [603E0E9B] Copy OK

All tracks accurately ripped

No errors occurred

End of status report
REM GENRE "Progressive Rock"REM DATE 1992REM DISCID 300A5F04REM COMMENT "ExactAudioCopy v0.99pb4"PERFORMER "Дnglagеrd"TITLE "Hybris"FILE "Дnglagеrd\Hybris\01 - Jordrцk.wav" WAVE TRACK 01 AUDIO TITLE "Jordrцk" PERFORMER "Дnglagеrd" INDEX 01 00:00:00 TRACK 02 AUDIO TITLE "Vandringar I Vilsenhet" PERFORMER "Дnglagеrd" INDEX 00 11:09:23FILE "Дnglagеrd\Hybris\02 - Vandringar I Vilsenhet.wav" WAVE INDEX 01 00:00:00 TRACK 03 AUDIO TITLE "Ifrеn Klarhet Till Klarhet" PERFORMER "Дnglagеrd" INDEX 00 11:52:07FILE "Дnglagеrd\Hybris\03 - Ifrеn Klarhet Till Klarhet.wav" WAVE INDEX 01 00:00:00 TRACK 04 AUDIO TITLE "Kung Bore" PERFORMER "Дnglagеrd" INDEX 00 08:03:23FILE "Дnglagеrd\Hybris\04 - Kung Bore.wav" WAVE INDEX 01 00:00:00
-----------------------

DON'T MODIFY THIS FILE

-----------------------

PERFORMER: auCDtect Task Manager, ver. 1.5.1RC4 build 1.5.1.5Copyright (c) 2008-2010 y-soft. All rights reservedhttp://y-soft.org

ANALYZER: auCDtect: CD records authenticity detector, version 0.8.2Copyright (c) 2004 Oleg Berngardt. All rights reserved.Copyright (c) 2004 Alexander Djourik. All rights reserved.

FILE: 04 - Kung Bore.flac Size: 78490455 Hash: DDE9F1968EA5B26ADF4EF458556C08D8 Accuracy: -m0 Conclusion: CDDA 100% Signature: FE77AA73043AB2A3F82C794D7DC41E823AA0FAFDFILE: 03 - Ifrån Klarhet Till Klarhet.flac Size: 47759385 Hash: 5890713FE89AD6D91335471962E46E3B Accuracy: -m0 Conclusion: CDDA 100% Signature: FD477AF381F496FACF3162599985618D4042141FFILE: 02 - Vandringar I Vilsenhet.flac Size: 68367524 Hash: 7843A0EBFF9AF406111D726ABE188617 Accuracy: -m0 Conclusion: CDDA 100% Signature: 55A32184EB337FFCC7ACA482C5A7310651891143FILE: 01 - Jordrök.flac Size: 64597891 Hash: B9B672FF272A1F3FB62FD3E70CA9AB3B Accuracy: -m0 Conclusion: CDDA 100% Signature: C447781FAA21B31F89FF396FED901D2DFF9CF3F1
Швеция, как и любая другая страна, имеет свою давнюю музыкальную историю и своих неповторимых исполнителей. Помимо набивших оскомину ABBA, в этом государстве всегда было сильно прогрессивное рок-движение, яркими представителями которого в 90-х годах минувшего столетия стала группа Änglagård, просуществовавшая всего несколько лет, но успевшая внести ощутимый вклад в развитие жанра на скандинавском полуострове.

В 1991 году гитарист Торд Линдман (Tord Lindman) и басист Юхан Хегберг (Johan Högberg) начали поиски музыкантов, которые бы также как и они увлекались прогрессивным роком 70-х и, естественно, на должном уровне владели музыкальными инструментами. На объявление о поиске единомышленников откликнулись клавишник Томас Юнсон (Thomas Johnson) и гитарист Юнас Энгдегорд (Jonas Engdegård). Немного пообщавшись и узнав о музыкальных пристрастиях друг друга, которые, кстати, оказались очень похожими, музыканты решили объединиться. Через некоторое время к новоиспеченному коллективу присоединился барабанщик Маттиас Ульссон (Mattias Olsson) – старый приятель Томаса и Юнаса, с которым они вместе обучались музыкальному искусству.

Когда Änglagård уже практически закончили написание материала для дебютного альбома, в группе появился еще один участник, точнее, участница – флейтистка Анна Хольмгрен (Anna Holmgren). Быстро сочинив партии для нового инструмента, музыканты в 1992 году вынесли на суд публики и критиков свое творение «Hybris». Нельзя сказать, что с выходом этого альбома прогрессивный мир был потрясен, но то, что молодые исполнители моментально попали в зону пристального внимания поклонников жанра – это факт. Изданный небольшим тиражом, «Hybris» вскоре стал раритетом, и его даже пришлось переиздавать.

Единственным незначительным минусом дебютного альбома, который обязательно должны были обнаружить наиболее консервативные меломаны – это пение на шведском языке. К счастью для любителей англоязычного пения, поют на альбоме не много, а на следующем диске, который вышел спустя два года, и того меньше. «Epilog» был полностью инструментальным и, в отличие от дебютника, мрачным до невозможности. Музыканты наконец-то нащупали свои скандинавские корни и полностью окунулись в атмосферу суровой северной природы, переложив свои ощущения на музыку.

После выхода очень достойного «Эпилога» музыканты по неизвестным причинам решили прекратить совместное существование, оставив в недоумении прогрессивную общественность не только Швеции, но уже и всего мира. Änglagård сподобились дважды выступить на известнейшем фестивале прогрессивного рока в Лос-Анджелесе «Progfest» и успели зарекомендовать себя с самой лучшей стороны. В 2003 году была попытка собраться снова, но дальше нескольких совместных выступлений дело не пошло. В 2011 году Änglagård все же нашли силы для очередного объединения и даже приступили к записи нового материала. В июне 2012 года группа намерена выступить на грандиозном прог-фестивале «NEARfest».
- Thomas Johnson / Mellotron, Hammond organ B-3 and L-100, solina, clavinet, pianet, korg mono/poly, piano and church organ electronic version
- Jonas Engdegård / Stratocaster, Gibson 335, nylon and steel acoustic guitars
- Tord Lindman / vocals, Gibson 335, nylon and steel acoustic guitars
- Johan Högberg / Rickenbacker bass, basspedals and mellotroneffects
- Anna Holmgren / flute
- Mattias Olsson / Sonor drumset, Zildjians cymbals, concert bass drum, triangles, tambourines, vibraslap, po-chung, gong, castanets, line-bells, cow-bell, wood-blcok, glockenspiel, tubular bells, bongos, bells, ice-bell, finger cymbals, waterfall, a-gogo bells, cabasa, claves, French cowbell, African drums, effect-flute


Трекер:  [ 19-Авг-2012 09:48 ]

  

Скачать .torrent

Размер .torrent файла 20 KB


Размер: 249 MB
Хэш (hash) релиза: 5e246a1a2f92d32371fc004bf8ea28063ce98ffe

Еще никто не оставлял запись к записи скачать торрент Änglagård . Будь первым!

!Обратная связь