Скачать через торрент музыку John Wetton - Voice Mail бесплатно без регистрации torrent

Если у вас наблюдаются проблемы со скриншотами, переходом по ссылками, скачиванием торрентов - проблемы в блокировщике рекламы AdBlock. #хорошегоДня!


Статистика раздачи
Размер:  359 MB   |    Зарегистрирован:  4 года 11 месяцев   |    .torrent скачан:  27 раз   |   
Раздают:  1  
   
Загрузка...
 
Автор Сообщение

Umakiro

avatar Umakiro


John Wetton / Voice Mail (Japan PCCY-00573)

Жанр: Prog Rock
Страна-производитель диска: Japan
Год издания: 1994
Издатель (лейбл): Canyon
Номер по каталогу: PCCY-00573
Страна: Japan
Аудиокодек: FLAC (*.flac)
Тип рипа: image+.cue
Битрейт аудио: lossless
Продолжительность: 00:46:15
Источник (релизер): guzonka
Наличие сканов в содержимом раздачи: да
Треклист:
01. Right Where I Wanted To Be [0:04:55.32]
02. Battle Lines [0:05:25.45]
03. Jane [0:04:19.15]
04. Crime Of Passion [0:04:43.13]
05. Sand In My Hand [0:03:47.62]
06. Sea Of Mercy [0:04:40.03]
07. Hold Me Now [0:05:58.72]
08. Space And Time [0:04:07.10]
09. Walking On Air [0:03:09.65]
10. You're Not The Only One [0:04:58.10]
Exact Audio Copy V1.0 beta 3 from 29. August 2011

Отчёт EAC об извлечении, выполненном 11. августа 2012, 1:07

John Wetton / Voice Mail

Дисковод: PIONEER DVD-RW DVR-219L Adapter: 0 ID: 0

Режим чтения : ДостоверностьИспользование точного потока : ДаОтключение кэша аудио : ДаИспользование указателей C2 : Нет

Коррекция смещения при чтении : 6Способность читать области Lead-in и Lead-out : НетЗаполнение пропущенных сэмплов тишиной : ДаУдаление блоков с тишиной в начале и конце : НетПри вычислениях CRC использовались нулевые сэмплы : ДаИнтерфейс : Встроенный Win32-интерфейс для Win NT/2000

Выходной формат : Пользовательский кодировщикВыбранный битрейт : 640 kBit/sКачество : ВысокийДобавление ID3-тега : НетУтилита сжатия : C:\Program Files (x86)\Exact Audio Copy\Flac\flac.exeДополнительные параметры : -V -8 -T "Date=%year%" -T "Genre=%genre%" %source%

TOC извлечённого CD

Трек | Старт | Длительность | Начальный сектор | Конечный сектор --------------------------------------------------------------------- 1 | 0:00.00 | 4:55.32 | 0 | 22156 2 | 4:55.32 | 5:25.45 | 22157 | 46576 3 | 10:21.02 | 4:19.15 | 46577 | 66016 4 | 14:40.17 | 4:43.13 | 66017 | 87254 5 | 19:23.30 | 3:47.62 | 87255 | 104341 6 | 23:11.17 | 4:40.03 | 104342 | 125344 7 | 27:51.20 | 5:58.72 | 125345 | 152266 8 | 33:50.17 | 4:07.10 | 152267 | 170801 9 | 37:57.27 | 3:09.65 | 170802 | 185041 10 | 41:07.17 | 4:58.10 | 185042 | 207401

Характеристики диапазона извлечения и сообщения об ошибках

Выбранный диапазон

Имя файла E:\dvda\John Wetton - Voice Mail.wav

Пиковый уровень 97.2 % Скорость извлечения 1.6 X Качество диапазона 100.0 % CRC теста D2B4D509 CRC копии D2B4D509 Копирование... OK

Ошибок не произошло

Конец отчёта

==== Контрольная сумма отчёта EEBC1C750C83346D7E9D0015E8B1B0211BCB7169A99919B66A2FD9164DCA147B ====


Трекер:  [ 19-Авг-2012 09:49 ]

  

Скачать .torrent

Размер .torrent файла 15 KB


Размер: 359 MB
Хэш (hash) релиза: 9211bef6b21242558cc20b767e843ed01362b6b6

Еще никто не оставлял запись к записи скачать торрент John Wetton - Voice Mail . Будь первым!

!Обратная связь