Скачать через торрент музыку Talas - Talas бесплатно без регистрации torrent

Если у вас наблюдаются проблемы со скриншотами, переходом по ссылками, скачиванием торрентов - проблемы в блокировщике рекламы AdBlock. #хорошегоДня!


Статистика раздачи
Размер:  252 MB   |    Зарегистрирован:  5 лет   |    .torrent скачан:  50 раз   |   
Раздают:  1  
   
Загрузка...
 
Автор Сообщение

Umakiro

avatar Umakiro


Talas / Talas (1979)

Жанр: Hard-Rock
Страна-производитель диска: USA
Год издания: 1991
Издатель (лейбл): Metal Blade
Номер по каталогу: 3984-14209-2
Страна: USA
Аудиокодек: FLAC (*.flac)
Тип рипа: image+.cue
Битрейт аудио: lossless
Продолжительность: 37:14
Источник (релизер): Свой рип, диск одолжен у знакомого
Наличие сканов в содержимом раздачи: да

Треклист:

1. See Saw
2.Stop! In The Name Of Love
3. Most People
4. She Don't Know
5. Any Other Day
6. My Little Girl
7. Thick Head
8. You
9. Expert On Me
10. Baby It Sure Looks Great

Exact Audio Copy V1.0 beta 3 from 29. August 2011

Отчёт EAC об извлечении, выполненном 4. августа 2012, 23:43

Talas / Talas

Дисковод: PIONEER DVD-RW DVR-218L Adapter: 2 ID: 1

Режим чтения : ДостоверностьИспользование точного потока : ДаОтключение кэша аудио : ДаИспользование указателей C2 : Нет

Коррекция смещения при чтении : 6Способность читать области Lead-in и Lead-out : НетЗаполнение пропущенных сэмплов тишиной : ДаУдаление блоков с тишиной в начале и конце : НетПри вычислениях CRC использовались нулевые сэмплы : ДаИнтерфейс : Встроенный Win32-интерфейс для Win NT/2000

Выходной формат : Внутренние WAV-операцииФормат сэмплов : 44.100 Гц; 16 бит; стерео

TOC извлечённого CD

Трек | Старт | Длительность | Начальный сектор | Конечный сектор --------------------------------------------------------------------- 1 | 0:00.00 | 4:47.17 | 0 | 21541 2 | 4:47.17 | 3:11.38 | 21542 | 35904 3 | 7:58.55 | 2:58.30 | 35905 | 49284 4 | 10:57.10 | 3:34.60 | 49285 | 65394 5 | 14:31.70 | 4:25.25 | 65395 | 85294 6 | 18:57.20 | 2:56.12 | 85295 | 98506 7 | 21:53.32 | 3:41.70 | 98507 | 115151 8 | 25:35.27 | 3:50.35 | 115152 | 132436 9 | 29:25.62 | 3:05.43 | 132437 | 146354 10 | 32:31.30 | 4:43.12 | 146355 | 167591

Характеристики диапазона извлечения и сообщения об ошибках

Выбранный диапазон

Имя файла E:\Music\EAC rips\Talas (1979)\Talas - Talas.wav

Пиковый уровень 95.3 % Скорость извлечения 1.6 X Качество диапазона 100.0 % CRC теста 5AE16D10 CRC копии 5AE16D10 Копирование... OK

Ошибок не произошло

AccurateRip: сводка

Трек 1 : извлечено точно (доверие 3) [76F2550E] (AR v1)Трек 2 : извлечено точно (доверие 3) [60A000EF] (AR v1)Трек 3 : извлечено точно (доверие 3) [3383BA9C] (AR v1)Трек 4 : извлечено точно (доверие 3) [E67707E5] (AR v1)Трек 5 : извлечено точно (доверие 3) [2195D3A4] (AR v1)Трек 6 : извлечено точно (доверие 3) [F955F474] (AR v1)Трек 7 : извлечено точно (доверие 3) [48EB7736] (AR v1)Трек 8 : извлечено точно (доверие 3) [290F8562] (AR v1)Трек 9 : извлечено точно (доверие 3) [394BFFED] (AR v1)Трек 10 : извлечено точно (доверие 3) [03FFFABE] (AR v1)

Все треки извлечены точно

Конец отчёта

==== Контрольная сумма отчёта 99045241F61FDBF2790F970CAD93758663BFAD47BBC4B3F2A6412CEAFB21F3B8 ====
REM GENRE "Hard Rock"REM DATE 1979REM DISCID 9608BA0AREM COMMENT "ExactAudioCopy v1.0b3"PERFORMER "Talas"TITLE "Talas"FILE "Talas - Talas.flac" WAVE TRACK 01 AUDIO TITLE "See Saw" PERFORMER "Talas" INDEX 01 00:00:00 TRACK 02 AUDIO TITLE "Stop! In The Name Of Love" PERFORMER "Talas" INDEX 01 04:47:17 TRACK 03 AUDIO TITLE "Most People" PERFORMER "Talas" INDEX 01 07:58:55 TRACK 04 AUDIO TITLE "She Don't Know" PERFORMER "Talas" INDEX 01 10:57:10 TRACK 05 AUDIO TITLE "Any Other Day" PERFORMER "Talas" INDEX 00 14:30:60 INDEX 01 14:31:70 TRACK 06 AUDIO TITLE "My Little Girl" PERFORMER "Talas" INDEX 00 18:56:14 INDEX 01 18:57:20 TRACK 07 AUDIO TITLE "Thick Head" PERFORMER "Talas" INDEX 00 21:52:22 INDEX 01 21:53:32 TRACK 08 AUDIO TITLE "You" PERFORMER "Talas" INDEX 01 25:35:27 TRACK 09 AUDIO TITLE "Expert On Me" PERFORMER "Talas" INDEX 01 29:25:62 TRACK 10 AUDIO TITLE "Baby It Sure Looks Great" PERFORMER "Talas" INDEX 01 32:31:30
Доп. информация: Первый альбом первой полноценной группы известнейшего бас-гитариста Билли Шиэна (Billy Sheehan), в дальнейшем участника составов Steve Vai, David Lee Roth, Mr. Big, Niacin и пятикратного обладателя премии "Best Rock Bass Player" по результатам читательского голосования журнала Guitar Player Magazine. Данный диск был записан в 1979 году и переиздан в 1991-м американской фирмой Metal Blade.
Billy Sheehan - bass, vocals
Dave Constantino - guitar, vocals
Paul Varga - drums, vocals


Трекер:  [ 19-Авг-2012 09:49 ]

  

Скачать .torrent

Размер .torrent файла 20 KB


Размер: 252 MB
Хэш (hash) релиза: 999757a8cb48ccec7fd0848331eb953a487ef5f8

Торренты, похожие на Talas - Talas скачать торрент

Форум Название Автор Размер S L Добавлен
Rосk | Mеtаl | Аltеrnаtivе, Рunk, Indереndеnt (mр3) ·· (Mathcore/Avant-Garde Metal) Hardcore Anal Hydrogen - The Talas of Satan - 2014, MP3, 320 kbps Galfimbul 5373216851 MB 0 0 1425127415

15:43

28-Фев-15

Еще никто не оставлял запись к записи скачать торрент Talas - Talas . Будь первым!

!Обратная связь