Скачать через торрент музыку Waysted Vices бесплатно без регистрации torrent

Если у вас наблюдаются проблемы со скриншотами, переходом по ссылками, скачиванием торрентов - проблемы в блокировщике рекламы AdBlock. #хорошегоДня!


Статистика раздачи
Размер:  257 MB   |    Зарегистрирован:  5 лет 2 месяца   |    .torrent скачан:  30 раз   |   
Раздают:  1  
   
Загрузка...
 
Автор Сообщение

Umakiro

avatar Umakiro


Waysted - Vices

Жанр: Hard Rock
Страна: Англия
Год выхода альбома: 1993
Год выпуска диска: 1983
Производитель диска: Япония
Продолжительность: 38:11
Источник (релизер): Собственный рип
Наличие сканов в содержимом раздачи: да

Треклист:
1. Love Loaded (03:55)
2. Woman In Chains (04:21)
3. Sleazy (04:08)
4. Night Of The Wolf (05:08)
5. Toy With The Passion (04:04)
6. Right From The Start (05:36)
7. Hot Love (04:22)
8. All Belongs To You (03:33)
9. Somebody To Love (03:04)

Доп. информация:
Лейбл: CHRYSALIS/EMI
Номер по каталогу: TOCP-8053
Матрица: TOCP-8053 1A1 TO (TOSHIBA)
Exact Audio Copy V1.0 beta 3 from 29. August 2011

Отчёт EAC об извлечении, выполненном 14. августа 2012, 10:58

Waysted / Vices [TOCP-8053]

Дисковод: Optiarc DVD RW AD-7200A Adapter: 0 ID: 0

Режим чтения : Достоверность
Использование точного потока : Да
Отключение кэша аудио : Да
Использование указателей C2 : Нет

Коррекция смещения при чтении : 48
Способность читать области Lead-in и Lead-out : Нет
Заполнение пропущенных сэмплов тишиной : Да
Удаление блоков с тишиной в начале и конце : Нет
При вычислениях CRC использовались нулевые сэмплы : Да
Интерфейс : Встроенный Win32-интерфейс для Win NT/2000

Выходной формат : Пользовательский кодировщик
Выбранный битрейт : 32 kBit/s
Качество : Высокий
Добавление ID3-тега : Нет
Утилита сжатия : C:\Program Files\Exact Audio Copy\Flac\flac.exe
Дополнительные параметры : -V -8 -T "Date=%year%" -T "Genre=%genre%" %source%

TOC извлечённого CD

Трек | Старт | Длительность | Начальный сектор | Конечный сектор
---------------------------------------------------------------------
1 | 0:00.00 | 3:54.70 | 0 | 17619
2 | 3:54.70 | 4:20.65 | 17620 | 37184
3 | 8:15.60 | 4:08.30 | 37185 | 55814
4 | 12:24.15 | 5:08.12 | 55815 | 78926
5 | 17:32.27 | 4:03.73 | 78927 | 97224
6 | 21:36.25 | 5:35.67 | 97225 | 122416
7 | 27:12.17 | 4:22.25 | 122417 | 142091
8 | 31:34.42 | 3:32.68 | 142092 | 158059
9 | 35:07.35 | 3:03.55 | 158060 | 171839

Характеристики диапазона извлечения и сообщения об ошибках

Выбранный диапазон

Имя файла Y:\Music\Waysted\1983 Vices\Waysted - Vices [TOCP-8053].wav

Пиковый уровень 100.0 %
Скорость извлечения 3.5 X
Качество диапазона 100.0 %
CRC теста 45BD817D
CRC копии 45BD817D
Копирование... OK

Ошибок не произошло

AccurateRip: сводка

Трек 1 : извлечено точно (доверие 1) [53BB2970] (AR v1)
Трек 2 : извлечено точно (доверие 1) [EEC7017B] (AR v1)
Трек 3 : извлечено точно (доверие 1) [DEF1C7F7] (AR v1)
Трек 4 : извлечено точно (доверие 1) [7CB01DC7] (AR v1)
Трек 5 : извлечено точно (доверие 1) [8DAB9F8D] (AR v1)
Трек 6 : извлечено точно (доверие 1) [25316B80] (AR v1)
Трек 7 : извлечено точно (доверие 1) [758A58EF] (AR v1)
Трек 8 : извлечено точно (доверие 1) [3C4B7A56] (AR v1)
Трек 9 : извлечено точно (доверие 1) [2DC9F533] (AR v1)

Все треки извлечены точно

Конец отчёта
REM GENRE "Hard Rock"REM DATE 1983REM DISCID 8208F309REM COMMENT "ExactAudioCopy v1.0b3"PERFORMER "Waysted"TITLE "Vices [TOCP-8053]"FILE "Waysted - Vices [TOCP-8053].flac" WAVE TRACK 01 AUDIO TITLE "Love Loaded" PERFORMER "Waysted" INDEX 01 00:00:00 TRACK 02 AUDIO TITLE "Women in Chains" PERFORMER "Waysted" INDEX 00 03:53:10 INDEX 01 03:54:70 TRACK 03 AUDIO TITLE "Sleazy" PERFORMER "Waysted" INDEX 00 08:13:12 INDEX 01 08:15:60 TRACK 04 AUDIO TITLE "Night of The Wolf" PERFORMER "Waysted" INDEX 01 12:24:15 TRACK 05 AUDIO TITLE "Toy With The Passion" PERFORMER "Waysted" INDEX 00 17:30:57 INDEX 01 17:32:27 TRACK 06 AUDIO TITLE "Right From The Start" PERFORMER "Waysted" INDEX 00 21:34:25 INDEX 01 21:36:25 TRACK 07 AUDIO TITLE "Hot Love" PERFORMER "Waysted" INDEX 00 27:08:47 INDEX 01 27:12:17 TRACK 08 AUDIO TITLE "All Belongs to You" PERFORMER "Waysted" INDEX 00 31:32:12 INDEX 01 31:34:42 TRACK 09 AUDIO TITLE "Somebody to Love" PERFORMER "Waysted" INDEX 00 35:06:02 INDEX 01 35:07:35
Состав:
Fin Muir - lead vocals
Ronnie Kayfield - lead guitar, backing vocals
Paul Raymond - rhythm guitar, keyboards, backing vocals
Pete Way - bass guitar
Frank Noon - drums

Трекер:  [ 19-Авг-2012 09:49 ]

  

Скачать .torrent

Размер .torrent файла 11 KB


Размер: 257 MB
Хэш (hash) релиза: 7022a478bd7a8717748887354fac5f077e5dfcd0

Еще никто не оставлял запись к записи скачать торрент Waysted Vices . Будь первым!

!Обратная связь