Скачать через торрент музыку Robert Plant 1988-Now And Zen бесплатно без регистрации torrent

Если у вас наблюдаются проблемы со скриншотами, переходом по ссылками, скачиванием торрентов - проблемы в блокировщике рекламы AdBlock. #хорошегоДня!


Статистика раздачи
Размер:  346 MB   |    Зарегистрирован:  5 лет   |    .torrent скачан:  32 раза   |   
Раздают:  1  
   
Загрузка...
 
Автор Сообщение

Umakiro

avatar Umakiro


Robert Plant
1988-Now And Zen
[Es Paranza 790 863-2, German Original Press]

Жанр: Rock
Страна исполнителя: United Kingdom
Страна-производитель диска: Germany
Год выхода альбома: 1988
Год издания диска: 198?
Издатель (лейбл): Es Paranza
Номер по каталогу: 790 863-2
Аудио кодек: FLAC (*.flac)
Тип рипа: image+.cue
Битрейт аудио: lossless
Продолжительность: 47:03
Источник: edenika (NetLab)
Наличие сканов в содержимом раздачи:
01. Heaven Knows (4:06)
02. Dance On My Own (4:30)
03. Tall Cool One (4:40)
04. The Way I Feel (5:41)
05. Helen Of Troy (5:07)
06. Billy's Revenge (3:34)
07. Ship Of Fools (5:02)
08. Why (4:15)
09. White, Clean And Neat (5:28)
10. Walking Towards Paradise (4:41)
Exact Audio Copy V1.0 beta 3 from 29. August 2011

EAC extraction logfile from 10. August 2012, 22:06

Robert Plant / Now And Zen

Used drive : HL-DT-STDVDRAM GH22NS50 Adapter: 1 ID: 1

Read mode : SecureUtilize accurate stream : YesDefeat audio cache : YesMake use of C2 pointers : No

Read offset correction : 667Overread into Lead-In and Lead-Out : NoFill up missing offset samples with silence : YesDelete leading and trailing silent blocks : NoNull samples used in CRC calculations : YesUsed interface : Native Win32 interface for Win NT & 2000

Used output format : Internal WAV RoutinesSample format : 44.100 Hz; 16 Bit; Stereo

TOC of the extracted CD

Track | Start | Length | Start sector | End sector --------------------------------------------------------- 1 | 0:00.32 | 4:06.10 | 32 | 18491 2 | 4:06.42 | 4:30.33 | 18492 | 38774 3 | 8:37.00 | 4:40.10 | 38775 | 59784 4 | 13:17.10 | 5:40.67 | 59785 | 85351 5 | 18:58.02 | 5:06.63 | 85352 | 108364 6 | 24:04.65 | 3:34.00 | 108365 | 124414 7 | 27:38.65 | 5:01.55 | 124415 | 147044 8 | 32:40.45 | 4:14.45 | 147045 | 166139 9 | 36:55.15 | 5:28.17 | 166140 | 190756 10 | 42:23.32 | 4:40.43 | 190757 | 211799

Range status and errors

Selected range

Filename C:\Music CD\Robert Plant - Now And Zen.wav

Peak level 100.0 % Extraction speed 1.6 X Range quality 99.9 % Test CRC 3AF46F19 Copy CRC 3AF46F19 Copy OK

No errors occurred

AccurateRip summary

Track 1 accurately ripped (confidence 6) [5C30187C] (AR v2)Track 2 accurately ripped (confidence 6) [DB82B4FE] (AR v2)Track 3 accurately ripped (confidence 7) [7BE8344A] (AR v2)Track 4 accurately ripped (confidence 7) [53F3C3DD] (AR v2)Track 5 accurately ripped (confidence 6) [1FCD0B28] (AR v2)Track 6 accurately ripped (confidence 7) [6274C064] (AR v2)Track 7 accurately ripped (confidence 6) [90065457] (AR v2)Track 8 accurately ripped (confidence 7) [B2E71E7E] (AR v2)Track 9 accurately ripped (confidence 7) [70935443] (AR v2)Track 10 accurately ripped (confidence 7) [C6C4BD4F] (AR v2)

All tracks accurately ripped

End of status report

==== Log checksum 0FB1E28EE6F812CC2EFB9BF430C316FE2C932FA4EAD118DD174561AF803F98E3 ====
REM GENRE "Rock"REM DATE 1988REM DISCID 880B080AREM COMMENT "ExactAudioCopy v1.0b3"REM ACCURATERIPID 00118fee-008d222e-880b080aCATALOG 075679086327REM DISCNUMBER 1REM TOTALDISCS 1PERFORMER "Robert Plant"TITLE "Now And Zen"FILE "Robert Plant - 1988 - Now And Zen.flac" WAVE TRACK 01 AUDIO TITLE "Heaven Knows" PERFORMER "Robert Plant" INDEX 00 00:00:00 INDEX 01 00:00:32 TRACK 02 AUDIO TITLE "Dance On My Own" PERFORMER "Robert Plant" INDEX 00 04:04:60 INDEX 01 04:06:42 TRACK 03 AUDIO TITLE "Tall Cool One" PERFORMER "Robert Plant" INDEX 00 08:35:65 INDEX 01 08:37:00 TRACK 04 AUDIO TITLE "The Way I Feel" PERFORMER "Robert Plant" INDEX 00 13:14:65 INDEX 01 13:17:10 TRACK 05 AUDIO TITLE "Helen Of Troy" PERFORMER "Robert Plant" INDEX 00 18:57:47 INDEX 01 18:58:02 TRACK 06 AUDIO TITLE "Billy's Revenge" PERFORMER "Robert Plant" INDEX 00 24:04:02 INDEX 01 24:04:65 TRACK 07 AUDIO TITLE "Ship Of Fools" PERFORMER "Robert Plant" INDEX 00 27:38:00 INDEX 01 27:38:65 TRACK 08 AUDIO TITLE "Why" PERFORMER "Robert Plant" INDEX 00 32:40:35 INDEX 01 32:40:45 TRACK 09 AUDIO TITLE "White, Clean And Neat" PERFORMER "Robert Plant" INDEX 00 36:54:72 INDEX 01 36:55:15 TRACK 10 AUDIO TITLE "Walking Towards Paradise" PERFORMER "Robert Plant" INDEX 00 42:22:67 INDEX 01 42:23:32
[CUETools log; Date: 14.08.2012 14:47:30; Version: 2.1.4]Pregap length 00:00:32.[CTDB TOCID: 3Ga8IyoklyczGQQSY7wFQrB0l.U-] found.Track | CTDB Status 1 | (1/1) Accurately ripped 2 | (1/1) Accurately ripped 3 | (1/1) Accurately ripped 4 | (1/1) Accurately ripped 5 | (1/1) Accurately ripped 6 | (1/1) Accurately ripped 7 | (1/1) Accurately ripped 8 | (1/1) Accurately ripped 9 | (1/1) Accurately ripped 10 | (1/1) Accurately ripped[AccurateRip ID: 00118fee-008d222e-880b080a] found.Track [ CRC | V2 ] Status 01 [fb83c1a2|5c30187c] (050+006/361) Accurately ripped 02 [9cf754e0|db82b4fe] (051+006/356) Accurately ripped 03 [87e60775|7be8344a] (053+007/372) Accurately ripped 04 [00d65cca|53f3c3dd] (051+007/360) Accurately ripped 05 [787e4afb|1fcd0b28] (053+006/359) Accurately ripped 06 [2bcad03b|6274c064] (051+007/361) Accurately ripped 07 [d6b926b1|90065457] (052+006/363) Accurately ripped 08 [f105648c|b2e71e7e] (050+007/358) Accurately ripped 09 [ee42bfe4|70935443] (051+007/355) Accurately ripped 10 [c280eece|c6c4bd4f] (050+007/341) Accurately rippedOffsetted by -852: 01 [9d43381a] (002/361) Accurately ripped 02 [1eac0414] (002/356) Accurately ripped 03 [444593e9] (003/372) Accurately ripped 04 [a7dac33e] (002/360) Accurately ripped 05 [ebaed663] (002/359) Accurately ripped 06 [cf7e9b1b] (002/361) Accurately ripped 07 [f21eb7c5] (002/363) Accurately ripped 08 [bed65cec] (002/358) Accurately ripped 09 [47215f2c] (002/355) Accurately ripped 10 [9e06fbb4] (002/341) Accurately rippedOffsetted by -377: 01 [104e8f98] (016/361) Accurately ripped 02 [023a5cb1] (015/356) Accurately ripped 03 [910918d6] (016/372) Accurately ripped 04 [6012e6ab] (016/360) Accurately ripped 05 [a9f606dd] (017/359) Accurately ripped 06 [dafd3953] (017/361) Accurately ripped 07 [85b3505a] (016/363) Accurately ripped 08 [f072fc84] (016/358) Accurately ripped 09 [b2bae41e] (016/355) Accurately ripped 10 [8ac54b4e] (015/341) Accurately rippedOffsetted by -351: 01 [d1146fbc] (017/361) Accurately ripped 02 [887c5c27] (015/356) Accurately ripped 03 [49c8e2ac] (017/372) Accurately ripped 04 [85a4cb81] (016/360) Accurately ripped 05 [e457b349] (016/359) Accurately ripped 06 [7f755563] (015/361) Accurately ripped 07 [8275ec60] (015/363) Accurately ripped 08 [a9de2fd4] (016/358) Accurately ripped 09 [326bfc1a] (014/355) Accurately ripped 10 [122fcbf8] (014/341) Accurately rippedOffsetted by -307: 01 [039e6134] (040/361) Accurately ripped 02 [7f6233db] (035/356) Accurately ripped 03 [a9d25fa0] (039/372) Accurately ripped 04 [27af6275] (038/360) Accurately ripped 05 [0c10afb1] (036/359) Accurately ripped 06 [a97bac43] (038/361) Accurately ripped 07 [90ab91f4] (040/363) Accurately ripped 08 [81312434] (038/358) Accurately ripped 09 [1e353862] (039/355) Accurately ripped 10 [f6430de6] (034/341) Accurately rippedOffsetted by -136: 01 [bc6505d2] (010/361) Accurately ripped 02 [2d76ba28] (011/356) Accurately ripped 03 [5f0e853d] (011/372) Accurately ripped 04 [c629fe92] (011/360) Accurately ripped 05 [5ace278b] (011/359) Accurately ripped 06 [1e42dafb] (011/361) Accurately ripped 07 [36706cb9] (011/363) Accurately ripped 08 [9d4ace4c] (011/358) Accurately ripped 09 [a11a9134] (011/355) Accurately ripped 10 [b5d82aa8] (011/341) Accurately rippedOffsetted by -81: 01 [7b9173a8] (050/361) Accurately ripped 02 [221607c9] (047/356) Accurately ripped 03 [171a616e] (050/372) Accurately ripped 04 [d0b73b43] (049/360) Accurately ripped 05 [cc75630d] (048/359) Accurately ripped 06 [52cac793] (047/361) Accurately ripped 07 [88337bb2] (047/363) Accurately ripped 08 [6a727fc4] (049/358) Accurately ripped 09 [87d61c8e] (049/355) Accurately ripped 10 [84a264b6] (045/341) Accurately rippedOffsetted by 50: 01 [a94f0e36] (051/361) Accurately ripped 02 [6413c9fe] (052/356) Accurately ripped 03 [75081573] (053/372) Accurately ripped 04 [21b3d9c8] (053/360) Accurately ripped 05 [99ff0cb7] (052/359) Accurately ripped 06 [2d00900b] (052/361) Accurately ripped 07 [956a7a1f] (054/363) Accurately ripped 08 [7cfaee9c] (053/358) Accurately ripped 09 [a8beb2f0] (052/355) Accurately ripped 10 [b4bcd62e] (050/341) Accurately rippedOffsetted by 245: 01 [4f1b1f44] (002/361) Accurately ripped 02 [5302c5f3] (003/356) Accurately ripped 03 [5ea67f38] (003/372) Accurately ripped 04 [bb7a0e0d] (003/360) Accurately ripped 05 [cfdb99e1] (003/359) Accurately ripped 06 [fe856283] (003/361) Accurately ripped 07 [fd1e0c4c] (003/363) Accurately ripped 08 [6b9eef74] (003/358) Accurately ripped 09 [666ee6d2] (003/355) Accurately ripped 10 [420b4624] (003/341) Accurately rippedOffsetted by 909: 01 [ecb12cb4] (006/361) Accurately ripped 02 [55497d1b] (006/356) Accurately ripped 03 [07efdce0] (006/372) Accurately ripped 04 [8ea57fb5] (006/360) Accurately ripped 05 [ca379231] (006/359) Accurately ripped 06 [04596a43] (006/361) Accurately ripped 07 [47ea8934] (006/363) Accurately ripped 08 [d73cfa34] (006/358) Accurately ripped 09 [c105e8e2] (006/355) Accurately ripped 10 [0a536f96] (006/341) Accurately rippedOffsetted by 971: 01 [90ff2f80] (022/361) Accurately ripped 02 [bcd32d0d] (021/356) Accurately ripped 03 [0f430cf2] (022/372) Accurately ripped 04 [ad28c8c7] (021/360) Accurately ripped 05 [df47de95] (021/359) Accurately ripped 06 [b3edfbf3] (022/361) Accurately ripped 07 [67933856] (022/363) Accurately ripped 08 [cc77afa4] (021/358) Accurately ripped 09 [18e74976] (021/355) Accurately ripped 10 [c96149ec] (020/341) Accurately rippedOffsetted by 1333: 01 [4810fdc4] (043/361) Accurately ripped 02 [cf079bb3] (045/356) Accurately ripped 03 [a56290f8] (044/372) Accurately ripped 04 [90dcffcd] (043/360) Accurately ripped 05 [bd5cb561] (044/359) Accurately ripped 06 [6ac50c83] (043/361) Accurately ripped 07 [ff63dc0c] (042/363) Accurately ripped 08 [0973a174] (040/358) Accurately ripped 09 [cfb05c52] (040/355) Accurately ripped 10 [2428c585] (041/341) Accurately rippedOffsetted by 1531: 01 [2b7dbc60] (002/361) Accurately ripped 02 [a611e65d] (002/356) Accurately ripped 03 [d58d4342] (002/372) Accurately ripped 04 [ea0ca717] (002/360) Accurately ripped 05 [f01d2535] (002/359) Accurately ripped 06 [27e19373] (002/361) Accurately ripped 07 [bf554526] (002/363) Accurately ripped 08 [5268ed24] (002/358) Accurately ripped 09 [74b9eb96] (002/355) Accurately ripped 10 [9121991b] (002/341) Accurately rippedOffsetted by 1591: 01 [fc0b4b78] (019/361) Accurately ripped 02 [c8340c81] (020/356) Accurately ripped 03 [5882eda6] (021/372) Accurately ripped 04 [de49a37b] (019/360) Accurately ripped 05 [b1eada7d] (019/359) Accurately ripped 06 [8fbbacd3] (020/361) Accurately ripped 07 [a42a0faa] (020/363) Accurately ripped 08 [60c2c604] (019/358) Accurately ripped 09 [87b50f3e] (018/355) Accurately ripped 10 [a5fa73d2] (017/341) Accurately ripped

Track Peak [ CRC32 ] [W/O NULL] [ LOG ] -- 100,0 [3AF46F19] [634ACBD9] CRC32 01 99,6 [F0EF5C31] [9DD6DD9D] 02 100,0 [857F966C] [109E80A1] 03 90,2 [A03A7AD4] [C3451D60] 04 93,8 [1F0316FB] [5E180759] 05 89,4 [BFFF9810] [E6387752] 06 98,9 [9DE9542D] [97C4A714] 07 94,9 [6F482EF0] [F5BF8208] 08 86,2 [CC63046B] [E4B67030] 09 84,2 [8B706D7B] [EFD2F495] 10 99,4 [2917E162] [0F6F0B22]
foobar2000 1.1.1 / Dynamic Range Meter 1.1.1log date: 2012-08-14 14:46:45

--------------------------------------------------------------------------------Analyzed: Robert Plant / Now And Zen--------------------------------------------------------------------------------

DR Peak RMS Duration Track--------------------------------------------------------------------------------DR10 -0.03 dB -13.59 dB 4:06 01-Heaven KnowsDR11 0.00 dB -13.26 dB 4:30 02-Dance On My OwnDR10 -0.89 dB -13.29 dB 4:40 03-Tall Cool OneDR11 -0.55 dB -13.53 dB 5:41 04-The Way I FeelDR10 -0.97 dB -13.78 dB 5:07 05-Helen Of TroyDR12 -0.09 dB -14.85 dB 3:34 06-Billy's RevengeDR12 -0.45 dB -16.13 dB 5:02 07-Ship Of FoolsDR10 -1.29 dB -14.50 dB 4:15 08-WhyDR11 -1.49 dB -15.16 dB 5:28 09-White, Clean And NeatDR12 -0.05 dB -14.64 dB 4:41 10-Walking Towards Paradise--------------------------------------------------------------------------------

Number of tracks: 10Official DR value: DR11

Samplerate: 44100 HzChannels: 2Bits per sample: 16Bitrate: 900 kbpsCodec: FLAC

Credits:
• Robert Plant - Vocals, Producer
• Phil Johnstone - Keyboards, Producer, Programming
• Tim Palmer - Producer
• Jimmy Page - Guitar (on tracks 1 & 3)
• Doug Boyle - Guitar
• Phil Scragg - Bass
• Chris Blackwell - Drums, Percussion
• David Barratt - Programming, Keyboards
• Marie Pierre - Vocals (Background)
• Toni Halliday - Vocals (Background)
• Kirsty MacColl - Vocals (Background)
• Robert Crash - Programming
• Rob Bozas - Engineer
• Martin Russell - Engineer
• Richard Evans Design & Art Direction
Огромное спасибо автору рипа!


Трекер:  [ 16-Авг-2012 18:52 ]

  

Скачать .torrent

Размер .torrent файла 15 KB


Размер: 346 MB
Хэш (hash) релиза: d52e184fc98ee4d89aaf0def01b40803439b764e

Торренты, похожие на Robert Plant 1988-Now And Zen скачать торрент

Форум Название Автор Размер S L Добавлен
Rосk | Mеtаl | Аltеrnаtivе, Рunk, Indереndеnt (losslеss) ·· (Rock) Robert Plant - Now And Zen [Japanese Remastered + Expanded 2007/ CD Box/ WPCR-75316] - 1988, APE (image+.cue), lossless Galfimbul 493976131471 MB 0 0 1297876459

20:14

16-Фев-11

Еще никто не оставлял запись к записи скачать торрент Robert Plant 1988-Now And Zen . Будь первым!

!Обратная связь