Скачать через торрент музыку The Doobie Brothers 1971-The Doobie Brothers бесплатно без регистрации torrent

Если у вас наблюдаются проблемы со скриншотами, переходом по ссылками, скачиванием торрентов - проблемы в блокировщике рекламы AdBlock. #хорошегоДня!


Статистика раздачи
Размер:  249 MB   |    Зарегистрирован:  5 лет   |    .torrent скачан:  8 раз   |   
Раздают:  1  
   
Загрузка...
 
Автор Сообщение

Umakiro

avatar Umakiro


The Doobie Brothers
1971-The Doobie Brothers
[2006, WPCR-12349, Japan]

Жанр: Rock
Страна исполнителя: USA
Страна-производитель диска: Japan
Год выхода альбома / издания диска: 1971 / 2006
Издатель (лейбл): Warner Music Japan
Номер по каталогу: WPCR-12349
Аудио кодек: FLAC (*.flac)
Тип рипа: image+.cue
Битрейт аудио: lossless
Продолжительность: 36:16
Источник: taurus66 (NetLab)
Наличие сканов в содержимом раздачи:
01. Nobody (3:46)
02. Slippery St. Paul (2:15)
03. Greenwood Creek (3:05)
04. It Won't Be Right (2:40)
05. Travelin' Man (4:28)
06. Feelin' Down Farther (4:20)
07. The Master (3:31)
08. Growin' a Little Each Day (3:22)
09. The Beehive State (2:44)
10. Closer Every Day (4:21)
11. Chicago (1:43)
Exact Audio Copy V1.0 beta 3 from 29. August 2011

EAC extraction logfile from 12. August 2012, 17:12

The Doobie Brothers / The Doobie Brothers [Warner Bros.WPCR-12349,Japan]

Used drive : Optiarc DVD RW AD-7200S Adapter: 5 ID: 1

Read mode : SecureUtilize accurate stream : YesDefeat audio cache : YesMake use of C2 pointers : No

Read offset correction : 48Overread into Lead-In and Lead-Out : NoFill up missing offset samples with silence : YesDelete leading and trailing silent blocks : NoNull samples used in CRC calculations : YesUsed interface : Installed external ASPI interface

Used output format : User Defined EncoderSelected bitrate : 1024 kBit/sQuality : HighAdd ID3 tag : NoCommand line compressor : D:\Program Files (x86)\Exact Audio Copy\wavpack.exeAdditional command line options : -hlmx2 %source% %dest%

TOC of the extracted CD

Track | Start | Length | Start sector | End sector --------------------------------------------------------- 1 | 0:00.00 | 3:46.20 | 0 | 16969 2 | 3:46.20 | 2:15.05 | 16970 | 27099 3 | 6:01.25 | 3:05.33 | 27100 | 41007 4 | 9:06.58 | 2:40.15 | 41008 | 53022 5 | 11:46.73 | 4:27.60 | 53023 | 73107 6 | 16:14.58 | 4:19.55 | 73108 | 92587 7 | 20:34.38 | 3:31.20 | 92588 | 108432 8 | 24:05.58 | 3:22.32 | 108433 | 123614 9 | 27:28.15 | 2:44.13 | 123615 | 135927 10 | 30:12.28 | 4:21.12 | 135928 | 155514 11 | 34:33.40 | 1:43.05 | 155515 | 163244

Range status and errors

Selected range

Filename D:\eac\The Doobie Brothers 5\The Doobie Brothers - The Doobie Brothers [Warner Bros.WPCR-12349,Japan].wav

Peak level 100.0 % Extraction speed 3.4 X Range quality 99.9 % Test CRC C43FA1DF Copy CRC C43FA1DF Copy OK

No errors occurred

AccurateRip summary

Track 1 accurately ripped (confidence 4) [256BB14C] (AR v1)Track 2 accurately ripped (confidence 4) [6D49CA25] (AR v1)Track 3 accurately ripped (confidence 4) [CDCB1400] (AR v1)Track 4 accurately ripped (confidence 4) [B499DAA6] (AR v1)Track 5 accurately ripped (confidence 4) [1EAC0E4E] (AR v1)Track 6 accurately ripped (confidence 4) [BD8AFB7C] (AR v1)Track 7 accurately ripped (confidence 4) [EE99B06F] (AR v1)Track 8 accurately ripped (confidence 4) [6DF22F2B] (AR v1)Track 9 accurately ripped (confidence 4) [5788A161] (AR v1)Track 10 accurately ripped (confidence 4) [E49A49E9] (AR v1)Track 11 accurately ripped (confidence 4) [8CB2CDD5] (AR v1)

All tracks accurately ripped

End of status report

---- CUETools DB Plugin V2.1.3

[CTDB TOCID: BKxkvawKLkLbJl4s80f61VDLyBw-] disk not present in database, Submit result: BKxkvawKLkLbJl4s80f61VDLyBw- has been uploaded

==== Log checksum B1ECD56708846846E2F7CE70F67E4DF4965DE74B0F492220FB3904E0C987BD21 ====
REM GENRE "Rock"REM DATE 1971REM DISCID 9408800BREM COMMENT "ExactAudioCopy v1.0b3"CATALOG 4943674056057PERFORMER "The Doobie Brothers"TITLE "The Doobie Brothers [WPCR-12349, Japan]"FILE "The Doobie Brothers - 1971 - The Doobie Brothers [WPCR-12349].flac" WAVE TRACK 01 AUDIO TITLE "Nobody" PERFORMER "The Doobie Brothers" ISRC USWB10103199 INDEX 01 00:00:00 TRACK 02 AUDIO TITLE "Slippery St. Paul" PERFORMER "The Doobie Brothers" ISRC USWB10103200 INDEX 01 03:46:20 TRACK 03 AUDIO TITLE "Greenwood Creek" PERFORMER "The Doobie Brothers" ISRC USWB10103201 INDEX 01 06:01:25 TRACK 04 AUDIO TITLE "It Won't Be Right" PERFORMER "The Doobie Brothers" ISRC USWB10103202 INDEX 00 09:06:10 INDEX 01 09:06:58 TRACK 05 AUDIO TITLE "Travelin' Man" PERFORMER "The Doobie Brothers" ISRC USWB10103203 INDEX 00 11:45:60 INDEX 01 11:46:73 TRACK 06 AUDIO TITLE "Feelin' Down Farther" PERFORMER "The Doobie Brothers" ISRC USWB10103204 INDEX 00 16:13:13 INDEX 01 16:14:58 TRACK 07 AUDIO TITLE "The Master" PERFORMER "The Doobie Brothers" ISRC USWB10103205 INDEX 01 20:34:38 TRACK 08 AUDIO TITLE "Growin' a Little Each Day" PERFORMER "The Doobie Brothers" ISRC USWB10103206 INDEX 00 24:05:30 INDEX 01 24:05:58 TRACK 09 AUDIO TITLE "The Beehive State" PERFORMER "The Doobie Brothers" ISRC USWB10103207 INDEX 00 27:27:43 INDEX 01 27:28:15 TRACK 10 AUDIO TITLE "Closer Every Day" PERFORMER "The Doobie Brothers" ISRC USWB10103208 INDEX 00 30:08:50 INDEX 01 30:12:28 TRACK 11 AUDIO TITLE "Chicago" PERFORMER "The Doobie Brothers" ISRC USWB10103209 INDEX 00 34:31:48 INDEX 01 34:33:40
[CUETools log; Date: 14.08.2012 16:01:35; Version: 2.1.4][CTDB TOCID: BKxkvawKLkLbJl4s80f61VDLyBw-] found.Track | CTDB Status 1 | (1/1) Accurately ripped 2 | (1/1) Accurately ripped 3 | (1/1) Accurately ripped 4 | (1/1) Accurately ripped 5 | (1/1) Accurately ripped 6 | (1/1) Accurately ripped 7 | (1/1) Accurately ripped 8 | (1/1) Accurately ripped 9 | (1/1) Accurately ripped 10 | (1/1) Accurately ripped 11 | (1/1) Accurately ripped[AccurateRip ID: 000f1d45-0083d624-9408800b] found.Track [ CRC | V2 ] Status 01 [256bb14c|8a412087] (4+0/4) Accurately ripped 02 [6d49ca25|009d59ce] (4+0/4) Accurately ripped 03 [cdcb1400|64dcf366] (4+0/4) Accurately ripped 04 [b499daa6|07bb5536] (4+0/4) Accurately ripped 05 [1eac0e4e|bc3728e6] (4+0/4) Accurately ripped 06 [bd8afb7c|0c89347a] (4+0/4) Accurately ripped 07 [ee99b06f|cfeec2c5] (4+0/4) Accurately ripped 08 [6df22f2b|6c55f334] (4+0/4) Accurately ripped 09 [5788a161|dc23d078] (4+0/4) Accurately ripped 10 [e49a49e9|131c357a] (4+0/4) Accurately ripped 11 [8cb2cdd5|5dcb1c5b] (4+0/4) Accurately ripped

Track Peak [ CRC32 ] [W/O NULL] [ LOG ] -- 100,0 [C43FA1DF] [40744FCC] CRC32 01 100,0 [9FC49942] [711FBC04] 02 100,0 [9A94E05D] [1DF5FB61] 03 100,0 [9CA3AA78] [FA9B5081] 04 100,0 [98C39883] [9B73950D] 05 100,0 [5608BB38] [E8CE815D] 06 100,0 [D6E8D805] [B800BF3B] 07 100,0 [7C0AAAFE] [9D8471C2] 08 100,0 [25E9C14C] [E49A3156] 09 100,0 [E172007F] [F5A0BF58] 10 100,0 [DB46A1D2] [28A2D3C8] 11 100,0 [5FDA1603] [B0E3CA37]
foobar2000 1.1.1 / Dynamic Range Meter 1.1.1log date: 2012-08-14 16:04:38

--------------------------------------------------------------------------------Analyzed: The Doobie Brothers / The Doobie Brothers [WPCR-12349, Japan]--------------------------------------------------------------------------------

DR Peak RMS Duration Track--------------------------------------------------------------------------------DR10 0.00 dB -11.49 dB 3:46 01-NobodyDR12 0.00 dB -13.72 dB 2:15 02-Slippery St. PaulDR10 0.00 dB -11.42 dB 3:05 03-Greenwood CreekDR10 0.00 dB -11.68 dB 2:40 04-It Won't Be RightDR11 0.00 dB -12.49 dB 4:28 05-Travelin' ManDR11 0.00 dB -12.56 dB 4:20 06-Feelin' Down FartherDR10 0.00 dB -12.73 dB 3:31 07-The MasterDR10 0.00 dB -12.82 dB 3:22 08-Growin' a Little Each DayDR9 0.00 dB -11.69 dB 2:44 09-The Beehive StateDR9 0.00 dB -12.66 dB 4:21 10-Closer Every DayDR12 0.00 dB -14.49 dB 1:43 11-Chicago--------------------------------------------------------------------------------

Number of tracks: 11Official DR value: DR10

Samplerate: 44100 HzChannels: 2Bits per sample: 16Bitrate: 845 kbpsCodec: FLAC

• Tom Johnston – guitars, keyboards, harmonica, vocals
• Patrick Simmons – guitars, banjo, flute, vocals
• Dave Shogren – bass, guitar, backing vocals
• John Hartman – drums, percussion, backing vocals
Огромное спасибо автору рипа!


Трекер:  [ 16-Авг-2012 18:52 ]

  

Скачать .torrent

Размер .torrent файла 21 KB


Размер: 249 MB
Хэш (hash) релиза: d7ba5796a303f1aa5d46f576e5fcd4f6572826b6

Еще никто не оставлял запись к записи скачать торрент The Doobie Brothers 1971-The Doobie Brothers . Будь первым!

!Обратная связь