Скачать через торрент музыку The Doobie Brothers 1975-Stampede бесплатно без регистрации torrent

Если у вас наблюдаются проблемы со скриншотами, переходом по ссылками, скачиванием торрентов - проблемы в блокировщике рекламы AdBlock. #хорошегоДня!


Статистика раздачи
Размер:  266 MB   |    Зарегистрирован:  5 лет 3 месяца   |    .torrent скачан:  39 раз   |   
Раздают:  1  
   
Загрузка...
 
Автор Сообщение

Umakiro

avatar Umakiro


The Doobie Brothers
1975-Stampede
[1990, WB 2835-2, USA]

Жанр: Rock
Страна исполнителя: USA
Страна-производитель диска: USA
Год выхода альбома / издания диска: 1975 / 1990
Издатель (лейбл): Warner Bros.
Номер по каталогу: WB 2835-2
Аудио кодек: FLAC (*.flac)
Тип рипа: image+.cue
Битрейт аудио: lossless
Продолжительность: 41:08
Источник: taurus66 (NetLab)
Наличие сканов в содержимом раздачи:
01. Sweet Maxime (4:27)
02. Neal's Fandango (3:10)
03. Texas Lullaby (5:02)
04. Music Man (3:34)
05. Slat Key Soquel Rag (1:54)
06. Take Me In Your Arms (Rock Me A Little While) (3:43)
07. I Cheat The Hangman (6:37)
08. Précis (0:59)
09. Rainy Day Crossroad Blues (3:46)
10. I Been Workin' On You (4:26)
11. Double Dealin' Four Flusher (3:29)
Exact Audio Copy V1.0 beta 3 from 29. August 2011

EAC extraction logfile from 7. August 2012, 15:54

The Doobie Brothers / Stampede [Warner Bros.2835-2]

Used drive : Optiarc DVD RW AD-7200S Adapter: 5 ID: 1

Read mode : SecureUtilize accurate stream : YesDefeat audio cache : YesMake use of C2 pointers : No

Read offset correction : 48Overread into Lead-In and Lead-Out : NoFill up missing offset samples with silence : YesDelete leading and trailing silent blocks : NoNull samples used in CRC calculations : YesUsed interface : Installed external ASPI interface

Used output format : User Defined EncoderSelected bitrate : 1024 kBit/sQuality : HighAdd ID3 tag : NoCommand line compressor : D:\Program Files (x86)\Exact Audio Copy\wavpack.exeAdditional command line options : -hlmx2 %source% %dest%

TOC of the extracted CD

Track | Start | Length | Start sector | End sector --------------------------------------------------------- 1 | 0:00.32 | 4:27.05 | 32 | 20061 2 | 4:27.37 | 3:10.03 | 20062 | 34314 3 | 7:37.40 | 5:02.30 | 34315 | 56994 4 | 12:39.70 | 3:34.12 | 56995 | 73056 5 | 16:14.07 | 1:54.13 | 73057 | 81619 6 | 18:08.20 | 3:42.70 | 81620 | 98339 7 | 21:51.15 | 6:36.70 | 98340 | 128109 8 | 28:28.10 | 0:59.07 | 128110 | 132541 9 | 29:27.17 | 3:46.18 | 132542 | 149509 10 | 33:13.35 | 4:25.70 | 149510 | 169454 11 | 37:39.30 | 3:29.35 | 169455 | 185164

Range status and errors

Selected range

Filename D:\eac\The Doobie Brothers 3\The Doobie Brothers - Stampede [Warner Bros.2835-2].wav

Peak level 100.0 % Extraction speed 3.5 X Range quality 99.9 % Test CRC A3C475CC Copy CRC A3C475CC Copy OK

No errors occurred

AccurateRip summary

Track 1 accurately ripped (confidence 16) [80209ED2] (AR v1)Track 2 accurately ripped (confidence 16) [9F27509D] (AR v1)Track 3 accurately ripped (confidence 16) [1E4C59D0] (AR v1)Track 4 accurately ripped (confidence 16) [499EC4E6] (AR v1)Track 5 accurately ripped (confidence 16) [240F5BE6] (AR v1)Track 6 accurately ripped (confidence 16) [6AD1A826] (AR v1)Track 7 accurately ripped (confidence 16) [D4B2B2DF] (AR v1)Track 8 accurately ripped (confidence 16) [A8A5BE3D] (AR v1)Track 9 accurately ripped (confidence 16) [17FA3EF7] (AR v1)Track 10 accurately ripped (confidence 16) [59BAA2AD] (AR v1)Track 11 accurately ripped (confidence 16) [A26EE788] (AR v1)

All tracks accurately ripped

End of status report

==== Log checksum 34B6005BD32AA9BCCB4FBA7EF4ED674517A25C376A2279A19639A01789086123 ====
REM GENRE "Rock"REM DATE 1975REM DISCID 9E09A40BREM COMMENT "ExactAudioCopy v1.0b3"CATALOG 0075992728928PERFORMER "The Doobie Brothers"TITLE "Stampede [Warner Bros.2835-2]"FILE "The Doobie Brothers - 1975 - Stampede.flac" WAVE TRACK 01 AUDIO TITLE "Sweet Maxime" PERFORMER "The Doobie Brothers" ISRC USWB10105044 INDEX 00 00:00:00 INDEX 01 00:00:32 TRACK 02 AUDIO TITLE "Neal's Fandango" PERFORMER "The Doobie Brothers" ISRC USWB10105047 INDEX 00 04:23:45 INDEX 01 04:27:37 TRACK 03 AUDIO TITLE "Texas Lullaby" PERFORMER "The Doobie Brothers" ISRC USWB10105049 INDEX 00 07:33:70 INDEX 01 07:37:40 TRACK 04 AUDIO TITLE "Music Man" PERFORMER "The Doobie Brothers" ISRC USWB10105054 INDEX 00 12:36:70 INDEX 01 12:39:70 TRACK 05 AUDIO TITLE "Slat Key Soquel Rag" PERFORMER "The Doobie Brothers" ISRC USWB10105057 INDEX 00 16:09:47 INDEX 01 16:14:07 TRACK 06 AUDIO TITLE "Take Me In Your Arms (Rock Me A Little While)" PERFORMER "The Doobie Brothers" ISRC USWB19900759 INDEX 00 18:04:55 INDEX 01 18:08:20 TRACK 07 AUDIO TITLE "I Cheat The Hangman" PERFORMER "The Doobie Brothers" ISRC USWB10105065 INDEX 00 21:46:52 INDEX 01 21:51:15 TRACK 08 AUDIO TITLE "Précis" PERFORMER "The Doobie Brothers" ISRC USWB10105066 INDEX 01 28:28:10 TRACK 09 AUDIO TITLE "Rainy Day Crossroad Blues" PERFORMER "The Doobie Brothers" ISRC USWB10105067 INDEX 00 29:24:60 INDEX 01 29:27:17 TRACK 10 AUDIO TITLE "I Been Workin' On You" PERFORMER "The Doobie Brothers" ISRC USWB10105068 INDEX 00 33:11:17 INDEX 01 33:13:35 TRACK 11 AUDIO TITLE "Double Dealin' Four Flusher" PERFORMER "The Doobie Brothers" ISRC USWB10105069 INDEX 00 37:35:17 INDEX 01 37:39:30
[CUETools log; Date: 14.08.2012 16:01:54; Version: 2.1.4]Pregap length 00:00:32.[CTDB TOCID: SIyB.MCPNcltPXuaY7ttlWIF_ic-] disk not present in database.[AccurateRip ID: 00113af3-0094369d-9e09a40b] found.Track [ CRC | V2 ] Status 01 [80209ed2|aba19bfc] (16+00/26) Accurately ripped 02 [9f27509d|58714c1d] (16+00/26) Accurately ripped 03 [1e4c59d0|532a197a] (16+00/26) Accurately ripped 04 [499ec4e6|e882c360] (16+00/27) Accurately ripped 05 [240f5be6|7a014da0] (16+00/27) Accurately ripped 06 [6ad1a826|15e9938a] (16+00/27) Accurately ripped 07 [d4b2b2df|927ef446] (16+00/27) Accurately ripped 08 [a8a5be3d|572017b6] (16+00/27) Accurately ripped 09 [17fa3ef7|35ea891b] (16+00/27) Accurately ripped 10 [59baa2ad|98211b42] (16+00/27) Accurately ripped 11 [a26ee788|b8a9a0db] (16+00/27) Accurately rippedOffsetted by 1774: 01 [2cd0a108] (08/26) Accurately ripped 02 [09972827] (08/26) Accurately ripped 03 [b945d5ba] (08/26) Accurately ripped 04 [8c49ec1e] (09/27) Accurately ripped 05 [c123a98c] (09/27) Accurately ripped 06 [0869e286] (09/27) Accurately ripped 07 [defad9e2] (09/27) Accurately ripped 08 [6be8bb60] (09/27) Accurately ripped 09 [e66a08a9] (09/27) Accurately ripped 10 [b68fa67b] (09/27) Accurately ripped 11 [adc99a48] (09/27) Accurately ripped

Track Peak [ CRC32 ] [W/O NULL] [ LOG ] -- 100,0 [A3C475CC] [85492AB7] CRC32 01 100,0 [8784AE97] [03B6AAA4] 02 67,1 [93534228] [AEFBC45A] 03 84,3 [14E28261] [551F9357] 04 100,0 [B97FF473] [AE7931E3] 05 50,7 [C1CC4F43] [24A98534] 06 69,1 [39D9FFE3] [B20D693C] 07 75,8 [72FEC730] [50BABA14] 08 26,7 [9A8D73B1] [A2FB344F] 09 95,5 [E50EC902] [E5496F5D] 10 94,3 [212282FA] [142291AF] 11 96,3 [B4DA26E7] [DDECD7B9]
foobar2000 1.1.1 / Dynamic Range Meter 1.1.1log date: 2012-08-14 16:07:17

--------------------------------------------------------------------------------Analyzed: The Doobie Brothers / Stampede [Warner Bros.2835-2]--------------------------------------------------------------------------------

DR Peak RMS Duration Track--------------------------------------------------------------------------------DR14 0.00 dB -16.80 dB 4:27 01-Sweet MaximeDR12 -3.45 dB -17.87 dB 3:10 02-Neal's FandangoDR13 -1.47 dB -17.81 dB 5:02 03-Texas LullabyDR13 0.00 dB -16.87 dB 3:34 04-Music ManDR13 -5.89 dB -21.51 dB 1:54 05-Slat Key Soquel RagDR13 -3.21 dB -18.49 dB 3:43 06-Take Me In Your Arms (Rock Me A Little While)DR13 -2.40 dB -19.77 dB 6:37 07-I Cheat The HangmanDR13 -11.44 dB -29.48 dB 0:59 08-PrГ©cisDR14 -0.40 dB -18.91 dB 3:46 09-Rainy Day Crossroad BluesDR12 -0.51 dB -17.11 dB 4:26 10-I Been Workin' On YouDR12 -0.32 dB -15.58 dB 3:29 11-Double Dealin' Four Flusher--------------------------------------------------------------------------------

Number of tracks: 11Official DR value: DR13

Samplerate: 44100 HzChannels: 2Bits per sample: 16Bitrate: 801 kbpsCodec: FLAC

• Tom Johnston – guitars, keyboards, harmonica, vocals
• Patrick Simmons – guitars, banjo, flute, vocals
• Jeff "Skunk" Baxter – guitars, backing vocals
• Tiran Porter – bass, vocals
• Keith Knudsen – drums, percussion, vocals
• John Hartman – drums, percussion, backing vocals
Огромное спасибо автору рипа!


Трекер:  [ 16-Авг-2012 18:52 ]

  

Скачать .torrent

Размер .torrent файла 12 KB


Размер: 266 MB
Хэш (hash) релиза: f7efa54e5e67763faa1a6d424c1958dbfdd83ebd

Еще никто не оставлял запись к записи скачать торрент The Doobie Brothers 1975-Stampede . Будь первым!

!Обратная связь