Скачать через торрент музыку UFO - Force It - 1975 бесплатно без регистрации torrent

Если у вас наблюдаются проблемы со скриншотами, переходом по ссылками, скачиванием торрентов - проблемы в блокировщике рекламы AdBlock. #хорошегоДня!


Статистика раздачи
Размер:  662 MB   |    Зарегистрирован:  5 лет 3 месяца   |    .torrent скачан:  11 раз   |   
Раздают:  1  
   
Загрузка...
 
Автор Сообщение

Umakiro

avatar Umakiro


UFO / Force It

Жанр: Hard Rock
Страна-производитель диска: Japan
Год издания: 1975 (2008 Remaster) (2012 Japan Reissue)
Издатель (лейбл): Chrysalis Records / EMI Music Japan
Номер по каталогу: TOCP-54376
Страна: UK
Аудиокодек: FLAC (*.flac)
Тип рипа: image+.cue
Битрейт аудио: lossless
Продолжительность: 1:05:24
Источник (релизер): ALLexxess
Наличие сканов в содержимом раздачи: да
Треклист:

01. Let It Roll
02. Shoot Shoot
03. High Flyer
04. Love Lost Love
05. Out In The Street
06. Mother Mary
07. Too Much Of Nothing
08. Dance Your Life Away
09. This Kids including Between The Walls
Bonus Tracks
10. A Million Miles (Previously unreleased studio track)
11. Mother Mary (Recorded live 11/12/75)
12. Out In The Streets (Recorded live 11/12/75)
13. Shoot Shoot (Recorded live 11/12/75)
14. Let It Roll (Recorded live 25/4/76)
15. This Kid's (Recorded live 25/4/76)
Exact Audio Copy V1.0 beta 3 from 29. August 2011

EAC extraction logfile from 6. August 2012, 19:51

UFO / Force It

Used drive : HL-DT-STDVDRAM GSA-H60N Adapter: 2 ID: 0

Read mode : SecureUtilize accurate stream : YesDefeat audio cache : YesMake use of C2 pointers : No

Read offset correction : 667Overread into Lead-In and Lead-Out : NoFill up missing offset samples with silence : YesDelete leading and trailing silent blocks : NoNull samples used in CRC calculations : YesUsed interface : Native Win32 interface for Win NT & 2000

Used output format : Internal WAV RoutinesSample format : 44.100 Hz; 16 Bit; Stereo

TOC of the extracted CD

Track | Start | Length | Start sector | End sector---------------------------------------------------------1 | 0:00.00 | 3:57.12 | 0 | 177862 | 3:57.12 | 3:39.67 | 17787 | 342783 | 7:37.04 | 4:08.74 | 34279 | 529524 | 11:46.03 | 3:21.66 | 52953 | 680935 | 15:07.69 | 5:18.05 | 68094 | 919486 | 20:25.74 | 3:49.40 | 91949 | 1091637 | 24:15.39 | 4:02.32 | 109164 | 1273458 | 28:17.71 | 3:35.12 | 127346 | 1434829 | 31:53.08 | 6:17.68 | 143483 | 17182510 | 38:11.01 | 4:49.12 | 171826 | 19351211 | 43:00.13 | 4:04.57 | 193513 | 21186912 | 47:04.70 | 5:12.25 | 211870 | 23529413 | 52:17.20 | 3:48.24 | 235295 | 25241814 | 56:05.44 | 4:59.48 | 252419 | 27489115 | 61:05.17 | 4:19.09 | 274892 | 294325

Range status and errors

Selected range

Filename C:\Documents and Settings\Admin\Рабочий стол\Lossless Galaxy Rip by ALLexxess\UFO\1975 Force It (EMI Music Japan 2012)\UFO - Force It.wav

Peak level 100.0 %Extraction speed 6.1 XRange quality 100.0 %Test CRC 96281E4CCopy CRC 96281E4CCopy OK

No errors occurred

AccurateRip summary

Track 1 cannot be verified as accurate (confidence 9) [D83519C2], AccurateRip returned [6A69729D] (AR v2)Track 2 cannot be verified as accurate (confidence 9) [2A6F1A03], AccurateRip returned [89E5B28A] (AR v2)Track 3 cannot be verified as accurate (confidence 9) [F365177A], AccurateRip returned [D0A38C51] (AR v2)Track 4 cannot be verified as accurate (confidence 9) [6AEC49BB], AccurateRip returned [291832E2] (AR v2)Track 5 cannot be verified as accurate (confidence 9) [75EA427A], AccurateRip returned [9CCFE300] (AR v2)Track 6 cannot be verified as accurate (confidence 9) [6464B887], AccurateRip returned [412BF3A1] (AR v2)Track 7 cannot be verified as accurate (confidence 9) [72B64F05], AccurateRip returned [9C88DD0D] (AR v2)Track 8 cannot be verified as accurate (confidence 9) [6EA96F32], AccurateRip returned [12669D59] (AR v2)Track 9 cannot be verified as accurate (confidence 9) [2875EC4D], AccurateRip returned [89C9D6A6] (AR v2)Track 10 cannot be verified as accurate (confidence 9) [08F7BBC4], AccurateRip returned [1EDEEC7F] (AR v2)Track 11 cannot be verified as accurate (confidence 9) [DE3B9CA3], AccurateRip returned [4D8C7285] (AR v2)Track 12 cannot be verified as accurate (confidence 9) [9F5A44AE], AccurateRip returned [A9145FD5] (AR v2)Track 13 cannot be verified as accurate (confidence 9) [4D7A2B45], AccurateRip returned [2E134E61] (AR v2)Track 14 cannot be verified as accurate (confidence 9) [C2A330D5], AccurateRip returned [58C66089] (AR v2)Track 15 cannot be verified as accurate (confidence 9) [04A14CB0], AccurateRip returned [BB721157] (AR v2)

No tracks could be verified as accurateYou may have a different pressing from the one(s) in the database

End of status report

==== Log checksum 95906311605F172C9A4ABE2552D6CBEF9AE7D44E1A278513C20A26430B32BFF8 ====
REM GENRE "Rock / Hard Rock / Heavy Metal"REM DATE 1975REM DISCID F50F540FREM COMMENT "ExactAudioCopy v1.0b3"PERFORMER "UFO"TITLE "Force It"FILE "UFO - Force It.wav" WAVE TRACK 01 AUDIO TITLE "Let It Roll" PERFORMER "UFO" INDEX 01 00:00:00 TRACK 02 AUDIO TITLE "Shoot Shoot" PERFORMER "UFO" INDEX 00 03:54:69 INDEX 01 03:57:12 TRACK 03 AUDIO TITLE "High Flyer" PERFORMER "UFO" INDEX 00 07:33:12 INDEX 01 07:37:04 TRACK 04 AUDIO TITLE "Love Lost Love" PERFORMER "UFO" INDEX 00 11:42:60 INDEX 01 11:46:03 TRACK 05 AUDIO TITLE "Out In The Street" PERFORMER "UFO" INDEX 00 15:04:56 INDEX 01 15:07:69 TRACK 06 AUDIO TITLE "Mother Mary" PERFORMER "UFO" INDEX 00 20:21:72 INDEX 01 20:25:74 TRACK 07 AUDIO TITLE "Too Much Of Nothing" PERFORMER "UFO" INDEX 00 24:12:55 INDEX 01 24:15:39 TRACK 08 AUDIO TITLE "Dance Your Life Away" PERFORMER "UFO" INDEX 00 28:14:55 INDEX 01 28:17:71 TRACK 09 AUDIO TITLE "This Kids including Between The Walls" PERFORMER "UFO" INDEX 00 31:50:37 INDEX 01 31:53:08 TRACK 10 AUDIO TITLE "A Million Miles (Previously unreleased studio track)" PERFORMER "UFO" INDEX 00 38:07:04 INDEX 01 38:11:01 TRACK 11 AUDIO TITLE "Mother Mary (Recorded live 11/12/75)" PERFORMER "UFO" INDEX 00 42:58:00 INDEX 01 43:00:13 TRACK 12 AUDIO TITLE "Out In The Street (Recorded live 11/12/75)" PERFORMER "UFO" INDEX 01 47:04:70 TRACK 13 AUDIO TITLE "Shoot Shoot (Recorded live 11/12/75)" PERFORMER "UFO" INDEX 01 52:17:20 TRACK 14 AUDIO TITLE "Let It Roll (Recorded live 25/4/76)" PERFORMER "UFO" INDEX 00 56:03:68 INDEX 01 56:05:44 TRACK 15 AUDIO TITLE "This Kid's (Recorded live 25/4/76)" PERFORMER "UFO" INDEX 01 61:05:17
-----------------------

DON'T MODIFY THIS FILE

-----------------------

PERFORMER: auCDtect Task Manager, ver. 1.5.1RC3 build 1.5.1.4Copyright (c) 2008-2010 y-soft. All rights reservedhttp://y-soft.org

ANALYZER: auCDtect: CD records authenticity detector, version 0.8.2Copyright (c) 2004 Oleg Berngardt. All rights reserved.Copyright (c) 2004 Alexander Djourik. All rights reserved.

FILE: UFO - Force It.flacSize: 464918919 Hash: 5ECCEA29CEA522DB10FF09431D101ACE Accuracy: -m8Conclusion: CDDA 100%Signature: B7DF2452A502F6626C8AE7A30291F5C0F5D73D21FILE: UFO - Force It.wavSize: 692254796 Hash: 5ECCEA29CEA522DB10FF09431D101ACE Accuracy: -m8Conclusion: CDDA 100%Signature: 79F4DFC97880AE654B40C1AA915F9F4D051E4377


Трекер:  [ 16-Авг-2012 18:51 ]

  

Скачать .torrent

Размер .torrent файла 16 KB


Размер: 662 MB
Хэш (hash) релиза: 094aeb5a1bd2b6fddd899c5a4c648cfab0defd07

Еще никто не оставлял запись к записи скачать торрент UFO - Force It - 1975 . Будь первым!

!Обратная связь