Скачать через торрент музыку Ken Hensley - Running Blind - 2002, FLAC бесплатно без регистрации torrent

Если у вас наблюдаются проблемы со скриншотами, переходом по ссылками, скачиванием торрентов - проблемы в блокировщике рекламы AdBlock. #хорошегоДня!


Статистика раздачи
Размер:  417 MB   |    Зарегистрирован:  5 лет 3 месяца   |    .torrent скачан:  41 раз   |   
Раздают:  1  
   
Загрузка...
 
Автор Сообщение

Umakiro

avatar Umakiro


Ken Hensley / Running Blind

Жанр: Hard Rock
Страна-производитель диска: UK
Год издания: 2002
Издатель (лейбл): Mystic Records
Номер по каталогу: MYS CD 153
Страна: UK
Аудиокодек: FLAC (*.flac)
Тип рипа: image+.cue
Битрейт аудио: lossless
Продолжительность: 0:53:57.40
Источник (релизер): личный лиск
Наличие сканов в содержимом раздачи: да
Треклист:
01. Overture: 'La Tristeza Secreta de Uncorazon Citano', Part 1 [0:02:29.32]
02. Prelude: A Minor Life [0:02:54.53]
03. Out of My Control [0:05:01.67]
04. You've Got It (The American Dream) [0:03:30.53]
05. The Final Solution [0:03:35.32]
06. It's Up to You [0:05:04.08]
07. Finney's Tale [0:03:01.40]
08. I Close My Eyes [0:04:53.02]
09. A Little Piece of Me (Julia's Song) [0:03:09.50]
10. Free Spirit [0:03:41.35]
11. Movin' In [0:04:03.55]
12. Let Me Be Me [0:02:50.03]
13. I Don't Wanna Wait [0:05:17.50]
14. Tell Me [0:04:24.10]
Exact Audio Copy V1.0 beta 3 from 29. August 2011

Отчёт EAC об извлечении, выполненном 10. августа 2012, 20:48

Ken Hensley / Running Blind

Дисковод: TSSTcorpCDDVDW TS-L633J Adapter: 0 ID: 1

Режим чтения : ДостоверностьИспользование точного потока : ДаОтключение кэша аудио : ДаИспользование указателей C2 : Нет

Коррекция смещения при чтении : 6Способность читать области Lead-in и Lead-out : НетЗаполнение пропущенных сэмплов тишиной : ДаУдаление блоков с тишиной в начале и конце : НетПри вычислениях CRC использовались нулевые сэмплы : ДаИнтерфейс : Установленный внешний ASPI-интерфейс

Выходной формат : Пользовательский кодировщикВыбранный битрейт : 128 kBit/sКачество : ВысокийДобавление ID3-тега : НетУтилита сжатия : C:\Program Files\Exact Audio Copy\FLAC\FLAC.EXEДополнительные параметры : -6 -V -T "ARTIST=%artist%" -T "TITLE=%title%" -T "ALBUM=%albumtitle%" -T "DATE=%year%" -T "TRACKNUMBER=%tracknr%" -T "GENRE=%genre%" -T "COMMENT=%comment%" -T "BAND=%albuminterpret%" -T "ALBUMARTIST=%albuminterpret%" -T "COMPOSER=%composer%" %haslyrics%--tag-from-file=LYRICS="%lyricsfile%"%haslyrics% -T "DISCNUMBER=%cdnumber%" -T "TOTALDISCS=%totalcds%" -T "TOTALTRACKS=%numtracks%" %hascover%--picture="%coverfile%"%hascover% %source% -o %dest%

TOC извлечённого CD

Трек | Старт | Длительность | Начальный сектор | Конечный сектор --------------------------------------------------------------------- 1 | 0:00.00 | 2:29.32 | 0 | 11206 2 | 2:29.32 | 2:54.53 | 11207 | 24309 3 | 5:24.10 | 5:01.67 | 24310 | 46951 4 | 10:26.02 | 3:30.53 | 46952 | 62754 5 | 13:56.55 | 3:35.32 | 62755 | 78911 6 | 17:32.12 | 5:04.08 | 78912 | 101719 7 | 22:36.20 | 3:01.40 | 101720 | 115334 8 | 25:37.60 | 4:53.02 | 115335 | 137311 9 | 30:30.62 | 3:09.50 | 137312 | 151536 10 | 33:40.37 | 3:41.35 | 151537 | 168146 11 | 37:21.72 | 4:03.55 | 168147 | 186426 12 | 41:25.52 | 2:50.03 | 186427 | 199179 13 | 44:15.55 | 5:17.50 | 199180 | 223004 14 | 49:33.30 | 4:24.10 | 223005 | 242814

Характеристики диапазона извлечения и сообщения об ошибках

Выбранный диапазон

Имя файла C:\KEN HENSLEY\Ken Hensley - Running Blind.wav

Пиковый уровень 100.0 % Скорость извлечения 2.9 X Качество диапазона 100.0 % CRC теста 642556D2 CRC копии 642556D2 Копирование... OK

Ошибок не произошло

AccurateRip: сводка

Трек 1 отсутствует в базе данныхТрек 2 отсутствует в базе данныхТрек 3 отсутствует в базе данныхТрек 4 отсутствует в базе данныхТрек 5 отсутствует в базе данныхТрек 6 отсутствует в базе данныхТрек 7 отсутствует в базе данныхТрек 8 отсутствует в базе данныхТрек 9 отсутствует в базе данныхТрек 10 отсутствует в базе данныхТрек 11 отсутствует в базе данныхТрек 12 отсутствует в базе данныхТрек 13 отсутствует в базе данныхТрек 14 отсутствует в базе данных

Ни одного трека нет в базе AccurateRip

Конец отчёта

---- CUETools DB Plugin V2.1.3

[CTDB TOCID: nc3IXLR5hjAnpOBPUqC61GWkcck-] found, Submit result: nc3IXLR5hjAnpOBPUqC61GWkcck- has been confirmed[df47d404] (1/1) Accurately ripped

==== Контрольная сумма отчёта 7C61363A5159DBBB9B7B96803A228F9BF1F42A1C2A159B71BF912A1D5F8C5CC8 ====
Очень красивый альбом, сделанный Кеном и друзьями по цеху в лучших традициях мелодичного харда.
- Ken Hensley / guitars, Organ, vocals
- Dave Kilmister / guitars
- David Karns / bass
- Steve Christey /drums

Special Guests:
- John Wetton / bass
- Andy Pyle / bass
- Mike Johnson / Drums
- Dave Wagstaffe / drums


Трекер:  [ 16-Авг-2012 18:51 ]

  

Скачать .torrent

Размер .torrent файла 17 KB


Размер: 417 MB
Хэш (hash) релиза: ed9508728e9d6a6dd51c97f6e2c880bc60e40207

Еще никто не оставлял запись к записи скачать торрент Ken Hensley - Running Blind - 2002, FLAC . Будь первым!

!Обратная связь