Скачать через торрент музыку Jaded Heart - Common Destiny - 2012 бесплатно без регистрации torrent

Если у вас наблюдаются проблемы со скриншотами, переходом по ссылками, скачиванием торрентов - проблемы в блокировщике рекламы AdBlock. #хорошегоДня!


Статистика раздачи
Размер:  582 MB   |    Зарегистрирован:  5 лет   |    .torrent скачан:  14 раз   |   
Раздают:  1  
   
Загрузка...
 
Автор Сообщение

Umakiro

avatar Umakiro


JADED HEART/ Common Destiny

Жанр: Melodic Hard Rock
Страна-производитель диска: Germany
Год издания: 2012
Издатель (лейбл): Fastball Music
Номер по каталогу: FB12C924
Страна: Germany
Аудиокодек: FLAC (*.flac)
Тип рипа: image+.cue
Битрейт аудио: lossless
Продолжительность: 56:12
Источник (релизер): Zak Stevens
Наличие сканов в содержимом раздачи: да
Треклист:
1. With You
2. Saints Denied
3. Into Tears
4. Buried Alive
5. I Believe
6. Run and Hide
7. Are We Mental
8. My Destiny
9. No More Lies
10. Life Is Beautiful
11. Higher
12. Fire and Flames
Exact Audio Copy V1.0 beta 3 from 29. August 2011

Отчёт EAC об извлечении, выполненном 15. августа 2012, 16:54

Jaded Heart / Common Destiny

Дисковод: MATSHITADVD-RAM UJ-861H Adapter: 0 ID: 0

Режим чтения : ДостоверностьИспользование точного потока : ДаОтключение кэша аудио : ДаИспользование указателей C2 : Нет

Коррекция смещения при чтении : 102Способность читать области Lead-in и Lead-out : НетЗаполнение пропущенных сэмплов тишиной : ДаУдаление блоков с тишиной в начале и конце : НетПри вычислениях CRC использовались нулевые сэмплы : ДаИнтерфейс : Встроенный Win32-интерфейс для Win NT/2000

Выходной формат : Внутренние WAV-операцииФормат сэмплов : 44.100 Гц; 16 бит; стерео

TOC извлечённого CD

Трек | Старт | Длительность | Начальный сектор | Конечный сектор --------------------------------------------------------------------- 1 | 0:00.00 | 4:33.57 | 0 | 20531 2 | 4:33.57 | 3:51.53 | 20532 | 37909 3 | 8:25.35 | 5:07.02 | 37910 | 60936 4 | 13:32.37 | 5:33.45 | 60937 | 85956 5 | 19:06.07 | 4:19.56 | 85957 | 105437 6 | 23:25.63 | 4:08.04 | 105438 | 124041 7 | 27:33.67 | 5:04.31 | 124042 | 146872 8 | 32:38.23 | 4:09.37 | 146873 | 165584 9 | 36:47.60 | 4:57.06 | 165585 | 187865 10 | 41:44.66 | 3:54.55 | 187866 | 205470 11 | 45:39.46 | 4:29.36 | 205471 | 225681 12 | 50:09.07 | 6:00.72 | 225682 | 252753 13 | 58:42.04 | 15:32.25 | 264154 | 334078

Характеристики диапазона извлечения и сообщения об ошибках

Выбранный диапазон

Имя файла D:\Исходные торренты\Jaded Heart - Common Destiny.wav

Пиковый уровень 98.7 % Скорость извлечения 2.5 X Качество диапазона 100.0 % CRC теста 12E53B87 CRC копии 12E53B87 Копирование... OK

Ошибок не произошло

AccurateRip: сводка

Трек 1 точность не определена (достоверность 1) [BC93AC1F], AccurateRip вернул [94281C26] (AR v2)Трек 2 : извлечено точно (доверие 1) [37BD98A8] (AR v2)Трек 3 : извлечено точно (доверие 1) [B00B299E] (AR v2)Трек 4 : извлечено точно (доверие 1) [8A0C34AF] (AR v2)Трек 5 : извлечено точно (доверие 1) [07DABC2B] (AR v2)Трек 6 : извлечено точно (доверие 1) [0266E48C] (AR v2)Трек 7 : извлечено точно (доверие 1) [17F7AAF5] (AR v2)Трек 8 : извлечено точно (доверие 1) [3A6ED19E] (AR v2)Трек 9 : извлечено точно (доверие 1) [67A211DD] (AR v2)Трек 10 : извлечено точно (доверие 1) [E06E2B4A] (AR v2)Трек 11 : извлечено точно (доверие 1) [4341A696] (AR v2)Трек 12 точность не определена (достоверность 1) [9A1DD34C], AccurateRip вернул [E246D3E6] (AR v2)

10 трек(и) скопированы точно 2 трек(и) не удалось проверить на точность

Некоторые треки не прошли проверку на точность

Конец отчёта
Format: MPEG-4
Format profile: Base Media / Version 2
Codec ID: mp42
File size: 136 MiB
Duration: 4mn 29s
Overall bit rate: 4 232 Kbps

Video
ID: 1
Format: AVC
Format/Info: Advanced Video Codec
Format profile: <a href="mailto:Main@L3.2" class="postLink">Main@L3.2</a>
Format settings, CABAC: Yes
Format settings, ReFrames: 3 frames
Format settings, GOP: M=3, N=33
Codec ID: avc1
Codec ID/Info: Advanced Video Coding
Duration: 4mn 29s
Bit rate mode: Variable
Bit rate: 3 976 Kbps
Width: 1 280 pixels
Height: 720 pixels
Display aspect ratio: 16:9
Frame rate mode: Constant
Frame rate: 25.000 fps
Standard: PAL
Color space: YUV
Chroma subsampling: 4:2:0
Bit depth: 8 bits
Scan type: Progressive
Bits/(Pixel*Frame): 0.173
Stream size: 128 MiB (94%)
Language: English

Audio
ID: 2
Format: AAC
Format/Info: Advanced Audio Codec
Format profile: LC
Codec ID: 40
Duration: 4mn 29s
Bit rate mode: Variable
Bit rate: 253 Kbps
Maximum bit rate: 355 Kbps
Channel(s): 2 channels
Channel positions: Front: L R
Sampling rate: 48.0 KHz
Compression mode: Lossy
Stream size: 8.15 MiB (6%)
Language: English


Трекер:  [ 16-Авг-2012 18:51 ]

  

Скачать .torrent

Размер .torrent файла 12 KB


Размер: 582 MB
Хэш (hash) релиза: 3ed392fdc1bd0f8845a1ccd586e9bd188edeb20d

Еще никто не оставлял запись к записи скачать торрент Jaded Heart - Common Destiny - 2012 . Будь первым!

!Обратная связь