Скачать через торрент музыку Kirili et les Nymphéas - Hommage à Monet бесплатно без регистрации torrent

Если у вас наблюдаются проблемы со скриншотами, переходом по ссылками, скачиванием торрентов - проблемы в блокировщике рекламы AdBlock. #хорошегоДня!


Статистика раздачи
Размер:  324 MB   |    Зарегистрирован:  5 лет   |    .torrent скачан:  13 раз   |   
Раздают:  1  
   
Загрузка...
 
Автор Сообщение

Umakiro

avatar Umakiro


Kirili et les Nymphéas / Hommage à Monet (Improvised Music At The Musée De L'Orangerie) CD+DVD

Жанр: Avant-Garde
Страна-производитель диска: France
Год издания: 2008
Издатель (лейбл): Mutable Music
Номер по каталогу: 17531-2
Страна: France
Аудиокодек: WavPack (*.wv)
Тип рипа: iso.wv
Битрейт аудио: lossless
Продолжительность: 60:58
Источник (релизер): tatuk (из шкафчика)
Наличие сканов в содержимом раздачи: да
Треклист:
1. One
2. Two
3. Three
Exact Audio Copy V1.0 beta 3 from 29. August 2011

EAC extraction logfile from 9. March 2012, 20:26

Kirili Et Les Nymphéas / Hommage A Monet (Improvised Music At The Musée De L'Orangerie)

Used drive : SONY DVD RW DRU-830A Adapter: 1 ID: 0

Read mode : SecureUtilize accurate stream : YesDefeat audio cache : YesMake use of C2 pointers : No

Read offset correction : 6Overread into Lead-In and Lead-Out : NoFill up missing offset samples with silence : YesDelete leading and trailing silent blocks : NoNull samples used in CRC calculations : YesUsed interface : Native Win32 interface for Win NT & 2000

Used output format : User Defined EncoderSelected bitrate : 768 kBit/sQuality : HighAdd ID3 tag : NoCommand line compressor : C:\Program Files (x86)\Exact Audio Copy\wavpack\wavpack.exeAdditional command line options : -hlm %source%

TOC of the extracted CD

Track | Start | Length | Start sector | End sector --------------------------------------------------------- 1 | 0:00.00 | 18:44.66 | 0 | 84365 2 | 18:44.66 | 25:56.53 | 84366 | 201118 3 | 44:41.44 | 16:17.25 | 201119 | 274418

Range status and errors

Selected range

Filename D:\_NL+_by_TATUK\WV.ISO6\Kirili Et Les Nymphéas - Hommage A Monet (Improvised Music At The Musée De L'Orangerie).wav

Peak level 84.8 % Extraction speed 7.4 X Range quality 100.0 % Copy CRC 2964747A Copy OK

No errors occurred

AccurateRip summary

Track 1 not present in databaseTrack 2 not present in databaseTrack 3 not present in database

None of the tracks are present in the AccurateRip database

End of status report

==== Log checksum 2E0CB1C9D5EE119CCFECAD51C22826E0944674E99AD712E9BB53C92D482864B5 ====
REM GENRE "Avantgarde"REM DATE 2008REM DISCID 1F0E4A03REM COMMENT "ExactAudioCopy v1.0b3"PERFORMER "Kirili Et Les Nympheas"TITLE "Hommage A Monet (Improvised Music At The Musee De L'Orangerie) "FILE "Kirili Et Les Nympheas - Hommage A Monet (Improvised Music At The Musee De L'Orangerie) 2008.wv" WAVE TRACK 01 AUDIO TITLE "One" PERFORMER "Kirili Et Les Nympheas" FLAGS DCP INDEX 01 00:00:00 TRACK 02 AUDIO TITLE "Two" PERFORMER "Kirili Et Les Nympheas" FLAGS DCP INDEX 01 18:44:66 TRACK 03 AUDIO TITLE "Three" PERFORMER "Kirili Et Les Nympheas" FLAGS DCP INDEX 01 44:41:44
-----------------------

DON'T MODIFY THIS FILE

-----------------------

PERFORMER: auCDtect Task Manager, ver. 1.5.1RC3 build 1.5.1.4Copyright (c) 2008-2010 y-soft. All rights reservedhttp://y-soft.org

ANALYZER: auCDtect: CD records authenticity detector, version 0.8.2Copyright (c) 2004 Oleg Berngardt. All rights reserved.Copyright (c) 2004 Alexander Djourik. All rights reserved.

FILE: Kirili Et Les Nymphéas - Hommage A Monet (Improvised Music At The Musée De L'Orangerie).wv Size: 285852640 Hash: 90BD64FF091069F9151AD72254EA8727 Accuracy: -m0 Conclusion: CDDA 100% Signature: 817BB408BAFB37F6CB5A8B165DE258947D80CC61
Kirili Et Les Nympheas - Hommage A Monet (Improvised Music At The Musee De L'Orangerie) 2008.wv
Kirili Et Les Nympheas - Hommage A Monet (Improvised Music At The Musee De L'Orangerie) 2008.wv.cue
disk.jpg
Mutabgle Music 17531-2.sig
back.jpg
Kirili Et Les Nympheas - Hommage A Monet (Improvised Music At The Musee De L'Orangerie) 2008.log
front.jpg
checkers\Kirili Et Les Nympheas - Hommage A Monet (Improvised Music At The Musee De L'Orangerie) 2008.accurip
checkers\Kirili Et Les Nympheas - Hommage A Monet (Improvised Music At The Musee De L'Orangerie).wv.auCDtect.txt
checkers\matrix.jpg
checkers\spectral.jpg
checkers\wave.jpg
checkers\EAC.jpg
misc\info.txt
readme\[RUS] README No unpacking needed to play or burn this release.txt
readme\[ENG] README No unpacking needed to play or burn this release.txt
scans\booklet1-0116.jpg
scans\booklet1-0203.jpg
scans\booklet1-0405.jpg
scans\booklet1-0607.jpg
scans\booklet1-0809.jpg
scans\booklet1-1011.jpg
scans\booklet1-1213.jpg
scans\booklet1-1415.jpg
scans\booklet2-0120.jpg
scans\booklet2-0203.jpg
scans\booklet2-0405.jpg
scans\booklet2-0607.jpg
scans\booklet2-0809.jpg
scans\booklet2-1011.jpg
scans\booklet2-1213.jpg
scans\booklet2-1415.jpg
scans\booklet2-1617.jpg
scans\booklet2-1819.jpg
scans\cd.jpg
scans\dvd.jpg
scans\front.jpg
scans\inside1.jpg
scans\inside2.jpg
scans\inside3.jpg
JEROME BOURDELLON flutes, bass clarinet
THOMAS BUCKNER baritone
DALILA KHATIR soprano
ROSCOE MITCHELL alto & soprano saxophones


Трекер:  [ 16-Авг-2012 14:33 ]

  

Скачать .torrent

Размер .torrent файла 2 KB


Размер: 324 MB
Хэш (hash) релиза: da02d4b426b661a0155fe6c9e373a2dc4ecc7c65

Еще никто не оставлял запись к записи скачать торрент Kirili et les Nymphéas - Hommage à Monet . Будь первым!

!Обратная связь