Скачать через торрент Карточные бои «Авангарда» Сезон 2 Cardfight!! Vanguard: Asia Circuit Hen бесплатно Аниме Все серии на русском torrent

Если у вас наблюдаются проблемы со скриншотами, переходом по ссылками, скачиванием торрентов - проблемы в блокировщике рекламы AdBlock. #хорошегоДня!


Статистика раздачи
Размер:  6.78 GB   |    Зарегистрирован:  5 лет 3 месяца   |    .torrent скачан:  57 раз   |   
Раздают:  1  
   
Загрузка...
 
Автор Сообщение

Galfimbul

avatar Galfimbul


Страна: Япония
Год выпуска: 2012 г.
Жанр: приключения, ККИ
Продолжительность: ~65 эп. по ~25 мин.

Перевод:

русские субтитры от Shockwave [19 из ~65]
русские субтитры от YakuSub Studio [12 из ~65]
(Перевод: Nika_Elrik; Редактура: Brasco, Arrank; Оформитель: KeeerRus, Nika_Elrik; Лирика: Nika_Elrik)
Режиссер: Цудзи Хацуки
Студия:
Описание: Второй сезон аниме Cardfight!! Vanguard. Начинается азиатский чемпионат по Авангарду, в котором команда "Q4" планирует участвовать. (с) Shockwave
Дополнительные ссылки:

Качество: HDTVRip (Zero-Raws)
Тип видео: без хардсаба
Формат: mp4
Видео: H.264, 1280x720, ~1900 Kbps, 23,976fps
Аудио JAP: AAC, 48000Hz, stereo, ~210 Kbps, 2ch
ОбщееПолное имя : J:\Cardfight!! Vanguard Asia Circuit Hen\Cardfight!! Vanguard Asia Circuit Hen - 01.mp4Формат : MPEG-4Профиль формата : Base MediaИдентификатор кодека : isomРазмер файла : 377 МбайтПродолжительность : 24 м.Режим общего битрейта : ПеременныйОбщий поток : 2128 Кбит/секДата кодирования : UTC 2012-04-18 14:54:32Дата пометки : UTC 2012-04-18 14:54:32

ВидеоИдентификатор : 1Формат : AVCФормат/Информация : Advanced Video CodecПрофиль формата : <a href="mailto:High@L4.1Параметр" class="postLink">High@L4.1Параметр</a> CABAC формата : ДаПараметр ReFrames формата : 4 кадраИдентификатор кодека : avc1Идентификатор кодека/Информация : Advanced Video CodingПродолжительность : 24 м.Битрейт : 1918 Кбит/секМаксимальный битрейт : 14,1 Мбит/секШирина : 1280 пикселейВысота : 720 пикселейСоотношение сторон : 16:9Режим частоты кадров : ПостоянныйЧастота кадров : 23,976 кадра/секЦветовое пространство : YUVСубдискретизация насыщенности : 4:2:0Битовая глубина : 8 битТип развёртки : ПрогрессивнаяБит/(Пиксели*Кадры) : 0.087Размер потока : 340 Мбайт (90%)Библиотека кодирования : x264 core 119 r2106 07efeb4Настройки программы : cabac=1 / ref=3 / deblock=1:0:0 / analyse=0x3:0x113 / me=hex / subme=7 / psy=1 / psy_rd=1.00:0.00 / mixed_ref=1 / me_range=16 / chroma_me=1 / trellis=1 / 8x8dct=1 / cqm=0 / deadzone=21,11 / fast_pskip=1 / chroma_qp_offset=-2 / threads=12 / sliced_threads=0 / nr=0 / decimate=1 / interlaced=0 / bluray_compat=0 / constrained_intra=0 / bframes=3 / b_pyramid=2 / b_adapt=1 / b_bias=0 / direct=1 / weightb=1 / open_gop=0 / weightp=2 / keyint=250 / keyint_min=23 / scenecut=40 / intra_refresh=0 / rc_lookahead=40 / rc=crf / mbtree=1 / crf=20.0 / qcomp=0.60 / qpmin=0 / qpmax=69 / qpstep=4 / ip_ratio=1.40 / aq=1:1.00Дата кодирования : UTC 2012-04-18 14:18:24Дата пометки : UTC 2012-04-18 14:54:33

АудиоИдентификатор : 2Формат : AACФормат/Информация : Advanced Audio CodecПрофиль формата : LCИдентификатор кодека : 40Продолжительность : 24 м.Вид битрейта : ПеременныйБитрейт : 206 Кбит/секМаксимальный битрейт : 256 Кбит/секКаналы : 2 каналаРасположение каналов : Front: L RЧастота : 48,0 КГцМетод сжатия : С потерямиЗадержка видео : -3 с. 337 мс.Размер потока : 36,5 Мбайт (10%)Язык : JapaneseДата кодирования : UTC 2012-04-18 14:54:33Дата пометки : UTC 2012-04-18 14:54:33
1 (66) - Gold Paladin
2 (67) - Activate, Limit Break!
3 (68) - Team Q4, Once More
4 (69) - The Challenge from PSY
5 (70) - The Curtain Rises! The VF Circuit!!
6 (71) - Appearance! Team Shinobi
7 (72) - The Lion That Surpasses The Limit
8 (73) - Fortune Telling Fight!
9 (74) - Betting on the Goddess!
10 (75) - Pride of the Elites
11 (76) - A Genius Descends
12 (77) - Challenger of the Snowfield
13 (78) - Tetsu Appears
14 (79) - Feverish Seoul Stage
15 (80) - Shocking New Member
16 (81) - Rematch of the Knights
17 (82) - Hero's Challenge
18 (83) -
19 (84) -
20 (85) -


Трекер:  [ 16-Авг-2012 09:51 ]

  

Скачать .torrent

Размер .torrent файла 22 KB


Размер: 6.78 GB
Хэш (hash) релиза: 7f5560d38939c19d3b19d96315ad8fcd938eab69
Подписка на обновления:

Еще никто не оставлял запись к записи скачать торрент Карточные бои «Авангарда» Сезон 2 Cardfight!! Vanguard: Asia Circuit Hen . Будь первым!

!Обратная связь