Скачать через торрент музыку 1st Avenue - Tears And Triumph бесплатно без регистрации torrent

Если у вас наблюдаются проблемы со скриншотами, переходом по ссылками, скачиванием торрентов - проблемы в блокировщике рекламы AdBlock. #хорошегоДня!


Статистика раздачи
Размер:  369 MB   |    Зарегистрирован:  5 лет 2 месяца   |    .torrent скачан:  13 раз   |   
Раздают:  1  
   
Загрузка...
 
Автор Сообщение

Galfimbul

avatar Galfimbul


1st Avenue / Tears And Triumph (Japan)

Жанр: AOR
Страна-производитель диска: Japan
Год издания: 1994
Издатель (лейбл): Toshiba EMI Ltd.
Номер по каталогу: XRCN-1099
Страна: Holland
Аудиокодек: FLAC (*.flac)
Тип рипа: image+.cue
Битрейт аудио: lossless
Продолжительность: 00:50:25
Источник (релизер): guzonka
Наличие сканов в содержимом раздачи: да
Треклист:
01. Intro- Going For The Gold
02. Heaven In Your Arms
03. When The Night Is Gone
04. Out Of Reach, Out Of Touch
05. Once In A Million Years
06. Never Too Late To Live
07. Hurt Before
08. You Forsake Me
09. Help Me Out
10. Tears And Triumph
Exact Audio Copy V1.0 beta 3 from 29. August 2011

Отчёт EAC об извлечении, выполненном 9. августа 2012, 22:45

1st Avenue / Tears And Triumph

Дисковод: PIONEER DVD-RW DVR-219L Adapter: 0 ID: 0

Режим чтения : ДостоверностьИспользование точного потока : ДаОтключение кэша аудио : ДаИспользование указателей C2 : Нет

Коррекция смещения при чтении : 6Способность читать области Lead-in и Lead-out : НетЗаполнение пропущенных сэмплов тишиной : ДаУдаление блоков с тишиной в начале и конце : НетПри вычислениях CRC использовались нулевые сэмплы : ДаИнтерфейс : Встроенный Win32-интерфейс для Win NT/2000

Выходной формат : Пользовательский кодировщикВыбранный битрейт : 640 kBit/sКачество : ВысокийДобавление ID3-тега : НетУтилита сжатия : C:\Program Files (x86)\Exact Audio Copy\Flac\flac.exeДополнительные параметры : -V -8 -T "Date=%year%" -T "Genre=%genre%" %source%

TOC извлечённого CD

Трек | Старт | Длительность | Начальный сектор | Конечный сектор --------------------------------------------------------------------- 1 | 0:00.00 | 5:34.12 | 0 | 25061 2 | 5:34.12 | 4:48.23 | 25062 | 46684 3 | 10:22.35 | 4:07.42 | 46685 | 65251 4 | 14:30.02 | 7:27.10 | 65252 | 98786 5 | 21:57.12 | 4:09.03 | 98787 | 117464 6 | 26:06.15 | 4:29.15 | 117465 | 137654 7 | 30:35.30 | 6:20.30 | 137655 | 166184 8 | 36:55.60 | 5:22.10 | 166185 | 190344 9 | 42:17.70 | 3:55.20 | 190345 | 207989 10 | 46:13.15 | 4:12.27 | 207990 | 226916

Характеристики диапазона извлечения и сообщения об ошибках

Выбранный диапазон

Имя файла E:\dvda\1st Avenue - Tears And Triumph.wav

Пиковый уровень 99.9 % Скорость извлечения 1.6 X Качество диапазона 100.0 % CRC теста 9382F2EE CRC копии 9382F2EE Копирование... OK

Ошибок не произошло

Конец отчёта

==== Контрольная сумма отчёта 13068CE65E0CFA27FEC019E6443752B3B3E5B12DDC00899A63423734BBB10A7E ====
REM GENRE "Hard Rock"REM DATE 1993REM DISCID 940BD10AREM COMMENT "ExactAudioCopy v1.0b3"CATALOG 4959407000990PERFORMER "1st Avenue"TITLE "Tears And Triumph"FILE "1st Avenue - Tears And Triumph.flac" WAVE TRACK 01 AUDIO TITLE "Intro - Going For The Gold" PERFORMER "1st Avenue" INDEX 01 00:00:00 TRACK 02 AUDIO TITLE "Heaven In Your Arms" PERFORMER "1st Avenue" INDEX 00 05:33:02 INDEX 01 05:34:12 TRACK 03 AUDIO TITLE "When The Night Is Gone" PERFORMER "1st Avenue" INDEX 00 10:21:12 INDEX 01 10:22:35 TRACK 04 AUDIO TITLE "Out Of Reach - Out Of Touch" PERFORMER "1st Avenue" INDEX 01 14:30:02 TRACK 05 AUDIO TITLE "Once In A Million Years" PERFORMER "1st Avenue" INDEX 00 21:56:00 INDEX 01 21:57:12 TRACK 06 AUDIO TITLE "Never Too Late To Live" PERFORMER "1st Avenue" INDEX 01 26:06:15 TRACK 07 AUDIO TITLE "Hurt Before" PERFORMER "1st Avenue" INDEX 01 30:35:30 TRACK 08 AUDIO TITLE "You Forsake Me" PERFORMER "1st Avenue" INDEX 01 36:55:60 TRACK 09 AUDIO TITLE "Help Me Out" PERFORMER "1st Avenue" INDEX 00 42:16:37 INDEX 01 42:17:70 TRACK 10 AUDIO TITLE "Tears And Triumph" PERFORMER "1st Avenue" INDEX 00 46:12:05 INDEX 01 46:13:15


Трекер:  [ 10-Авг-2012 22:30 ]

  

Скачать .torrent

Размер .torrent файла 15 KB


Размер: 369 MB
Хэш (hash) релиза: 751cba401c0d2f66eeb3f5393e6bfee41c4dd535

Еще никто не оставлял запись к записи скачать торрент 1st Avenue - Tears And Triumph . Будь первым!

!Обратная связь