Скачать через торрент B-Complex - Salad is OK, Beautiful Lies VIP - 2010 бесплатно русская версия torrent активатор

Если у вас наблюдаются проблемы со скриншотами, переходом по ссылками, скачиванием торрентов - проблемы в блокировщике рекламы AdBlock. #хорошегоДня!


Статистика раздачи
Размер:  259 MB   |    Зарегистрирован:  5 лет 2 месяца   |    .torrent скачан:  44 раза   |   
Раздают:  1  
   
Загрузка...
 
Автор Сообщение

Galfimbul

avatar Galfimbul


B-Complex - Salad is OK, Beautiful Lies VIP


Год: 2010 | Страна: | Жанр: Drum & Bass | Издатель (лейбл): Santorin Germany, Hospital Records | Продолжительность: 37:24
Тексты: не требуются | Кодек: ALAC | Программа-риповщик : foobar2000 + iTunes (lossless) | Битрейт: lossless
Треклист:
1.) Salad Is OK (5:48)
2.) Raindrops (5:55)
3.) Ocean Deep (6:34)
4.) It's A Funny World (6:13)
REM GENRE Drum & Bass
REM DATE 2010
PERFORMER "B-Complex"
TITLE "Salad Is OK"
FILE "01. B-Complex - Salad Is OK.flac" WAVE
TRACK 01 AUDIO
TITLE "Salad Is OK"
PERFORMER "B-Complex"
INDEX 01 00:00:00
FILE "02. B-Complex - Raindrops.flac" WAVE
TRACK 02 AUDIO
TITLE "Raindrops"
PERFORMER "B-Complex"
INDEX 01 00:00:00
FILE "03. B-Complex - Ocean Deep.flac" WAVE
TRACK 03 AUDIO
TITLE "Ocean Deep"
PERFORMER "B-Complex"
INDEX 01 00:00:00
FILE "04. B-Complex - It's A Funny World.flac" WAVE
TRACK 04 AUDIO
TITLE "It's A Funny World"
PERFORMER "B-Complex"
INDEX 01 00:00:00
AUDIOCHECKER v2.0 beta (build 457) - by Dester - <a href="mailto:opdester@freemail.hu" class="postLink">opdester@freemail.hu</a>
~~~~~~~~~~~~~~~~~~~~~~~~~~~~~~~~~~
-=== НЕ РЕДАКТИРУЙТЕ ЭТОТ ФАЙЛ! ===-

Путь: ...\2010.07.30 - B-Complex - Salad Is OK

1 -=- 01. B-Complex - Salad Is OK.flac -=- CDDA (100%)
2 -=- 02. B-Complex - Raindrops.flac -=- CDDA (100%)
3 -=- 03. B-Complex - Ocean Deep.flac -=- CDDA (100%)
4 -=- 04. B-Complex - It's A Funny World.flac -=- CDDA (100%)

Сводка 100,00% CDDA

55979060
1.) Beautiful Lies VIP (6:57)
2.) Little Oranges (5:59)
REM GENRE Drum & Bass
REM DATE 2010
PERFORMER "B-Complex"
TITLE "Beautiful Lies VIP"
FILE "01. B-Complex - Beautiful Lies VIP.flac" WAVE
TRACK 01 AUDIO
TITLE "Beautiful Lies VIP"
PERFORMER "B-Complex"
INDEX 01 00:00:00
FILE "02. B-Complex - Little Oranges.flac" WAVE
TRACK 02 AUDIO
TITLE "Little Oranges"
PERFORMER "B-Complex"
INDEX 01 00:00:00
AUDIOCHECKER v2.0 beta (build 457) - by Dester - <a href="mailto:opdester@freemail.hu" class="postLink">opdester@freemail.hu</a>
~~~~~~~~~~~~~~~~~~~~~~~~~~~~~~~~~~
-=== НЕ РЕДАКТИРУЙТЕ ЭТОТ ФАЙЛ! ===-

Путь: ...\2010.07.23 - B-Complex - Beautiful Lies VIP

1 -=- 01. B-Complex - Beautiful Lies VIP.flac -=- CDDA (100%)
2 -=- 02. B-Complex - Little Oranges.flac -=- CDDA (100%)

Сводка 100,00% CDDA

243147556

fooCDtect - foobar2000 + auCDtect, baralgin.

auCDtect: CD records authenticity detector, version 0.8.2Copyright (c) 2004 Oleg Berngardt. All rights reserved.Copyright (c) 2004 Alexander Djourik. All rights reserved.

mode: 0

=========================================== Track: Salad Is OK Quality: CDDA 100%=========================================== Track: Raindrops Quality: CDDA 100%=========================================== Track: Ocean Deep Quality: CDDA 100%=========================================== Track: It's A Funny World Quality: CDDA 100%=========================================== Track: Beautiful Lies VIP Quality: CDDA 100%=========================================== Track: Little Oranges Quality: CDDA 100%===========================================



Трекер:  [ 10-Авг-2012 19:04 ]

  

Скачать .torrent

Размер .torrent файла 11 KB


Размер: 259 MB
Хэш (hash) релиза: 2c01f740a7ed4856a944e49a20c5f2bf65b678c5

Еще никто не оставлял запись к записи скачать торрент B-Complex - Salad is OK, Beautiful Lies VIP - 2010 . Будь первым!

!Обратная связь