Скачать через торрент Viva Brother - Famous First Words - 2011 бесплатно русская версия torrent активатор

Если у вас наблюдаются проблемы со скриншотами, переходом по ссылками, скачиванием торрентов - проблемы в блокировщике рекламы AdBlock. #хорошегоДня!


Статистика раздачи
Размер:  257 MB   |    Зарегистрирован:  5 лет 2 месяца   |    .torrent скачан:  33 раза   |   
Раздают:  1  
   
Загрузка...
 
Автор Сообщение

Galfimbul

avatar Galfimbul


Viva Brother - Famous First Words


Год: 2011
Страна:
Жанр: Alternative
Тип издания: оригинал
Издатель (лейбл): Geffen
Наличие сканов в содержимом раздачи: нет
Продолжительность: 34:16
Тексты: вшиты
Кодек: ALAC
Программа-риповщик : foobar2000 + iTunes (lossless)
Битрейт: lossless

Треклист:
1.) New Year's Day (03:21)
2.) Still Here (04:02)
3.) David (03:12)
4.) High Street Low Lives (03:01)
5.) Electric Daydream (03:46)
6.) Darling Buds of May (03:15)
7.) Otherside (03:40)
8.) Fly By Nights (02:50)
9.) False Alarm (03:48)
10.) Time Machine (03:17)
Exact Audio Copy V1.0 beta 1 from 15. November 2010

EAC extraction logfile from 29. July 2011, 17:33

Viva Brother / Famous First Words

Used drive : TSSTcorpCD/DVDW TS-H652L Adapter: 5 ID: 0

Read mode : SecureUtilize accurate stream : YesDefeat audio cache : YesMake use of C2 pointers : No

Read offset correction : 6Overread into Lead-In and Lead-Out : NoFill up missing offset samples with silence : YesDelete leading and trailing silent blocks : NoNull samples used in CRC calculations : YesUsed interface : Native Win32 interface for Win NT & 2000Gap handling : Appended to previous track

Used output format : User Defined EncoderSelected bitrate : 128 kBit/sQuality : HighAdd ID3 tag : NoCommand line compressor : C:\Program Files\Exact Audio Copy\Flac\flac.exeAdditional command line options : -V -8 -T "artist=%a" -T "title=%t" -T "album=%g" -T "date=%y" -T "tracknumber=%n" -T "genre=%m" %s

TOC of the extracted CD

Track | Start | Length | Start sector | End sector --------------------------------------------------------- 1 | 0:00.00 | 3:21.02 | 0 | 15076 2 | 3:21.02 | 4:02.60 | 15077 | 33286 3 | 7:23.62 | 3:12.12 | 33287 | 47698 4 | 10:35.74 | 3:01.73 | 47699 | 61346 5 | 13:37.72 | 3:46.00 | 61347 | 78296 6 | 17:23.72 | 3:15.09 | 78297 | 92930 7 | 20:39.06 | 3:40.20 | 92931 | 109450 8 | 24:19.26 | 2:50.28 | 109451 | 122228 9 | 27:09.54 | 3:48.68 | 122229 | 139396 10 | 30:58.47 | 3:17.25 | 139397 | 154196

Track 1

Filename L:\Viva Brother - Famous First Words (2011) [FLAC]\01 - New Year's Day.wav

Pre-gap length 0:00:02.00

Peak level 100.0 % Extraction speed 2.8 X Track quality 100.0 % Test CRC FC2AE2EB Copy CRC FC2AE2EB Track not present in AccurateRip database Copy OK

Track 2

Filename L:\Viva Brother - Famous First Words (2011) [FLAC]\02 - Still Here.wav

Peak level 99.9 % Extraction speed 3.2 X Track quality 100.0 % Test CRC 17ED4C91 Copy CRC 17ED4C91 Track not present in AccurateRip database Copy OK

Track 3

Filename L:\Viva Brother - Famous First Words (2011) [FLAC]\03 - David.wav

Peak level 100.0 % Extraction speed 3.2 X Track quality 100.0 % Test CRC D8D87497 Copy CRC D8D87497 Track not present in AccurateRip database Copy OK

Track 4

Filename L:\Viva Brother - Famous First Words (2011) [FLAC]\04 - High Street Low Lives.wav

Peak level 100.0 % Extraction speed 2.8 X Track quality 99.9 % Test CRC 9CA16804 Copy CRC 9CA16804 Track not present in AccurateRip database Copy OK

Track 5

Filename L:\Viva Brother - Famous First Words (2011) [FLAC]\05 - Electric Daydream.wav

Peak level 100.0 % Extraction speed 3.7 X Track quality 100.0 % Test CRC B030F617 Copy CRC B030F617 Track not present in AccurateRip database Copy OK

Track 6

Filename L:\Viva Brother - Famous First Words (2011) [FLAC]\06 - Darling Buds of May.wav

Peak level 99.9 % Extraction speed 3.7 X Track quality 100.0 % Test CRC A6AF1845 Copy CRC A6AF1845 Track not present in AccurateRip database Copy OK

Track 7

Filename L:\Viva Brother - Famous First Words (2011) [FLAC]\07 - Otherside.wav

Peak level 100.0 % Extraction speed 3.9 X Track quality 100.0 % Test CRC 62C631A3 Copy CRC 62C631A3 Track not present in AccurateRip database Copy OK

Track 8

Filename L:\Viva Brother - Famous First Words (2011) [FLAC]\08 - Fly By Nights.wav

Peak level 100.0 % Extraction speed 3.9 X Track quality 100.0 % Test CRC C5B6FF80 Copy CRC C5B6FF80 Track not present in AccurateRip database Copy OK

Track 9

Filename L:\Viva Brother - Famous First Words (2011) [FLAC]\09 - False Alarm.wav

Peak level 100.0 % Extraction speed 4.3 X Track quality 100.0 % Test CRC 94E404B2 Copy CRC 94E404B2 Track not present in AccurateRip database Copy OK

Track 10

Filename L:\Viva Brother - Famous First Words (2011) [FLAC]\10 - Time Machine.wav

Peak level 98.1 % Extraction speed 4.3 X Track quality 100.0 % Test CRC 785CCAFE Copy CRC 785CCAFE Track not present in AccurateRip database Copy OK

None of the tracks are present in the AccurateRip database

No errors occurred

End of status report

==== Log checksum 06EDFA9A6F443A0543E17F011B0EB298C3E46F6851077D918990C45BE144925D ====
fooCDtect - foobar2000 + auCDtect, baralgin.

auCDtect: CD records authenticity detector, version 0.8.2Copyright (c) 2004 Oleg Berngardt. All rights reserved.Copyright (c) 2004 Alexander Djourik. All rights reserved.

mode: 0

=========================================== Track: New Year's Day Quality: CDDA 100%=========================================== Track: Still Here Quality: CDDA 100%=========================================== Track: David Quality: CDDA 100%=========================================== Track: High Street Low Lives Quality: CDDA 100%=========================================== Track: Electric Daydream Quality: CDDA 100%=========================================== Track: Darling Buds of May Quality: CDDA 100%=========================================== Track: Otherside Quality: CDDA 100%=========================================== Track: Fly By Nights Quality: CDDA 100%=========================================== Track: False Alarm Quality: CDDA 100%=========================================== Track: Time Machine Quality: CDDA 99%===========================================



Трекер:  [ 10-Авг-2012 19:04 ]

  

Скачать .torrent

Размер .torrent файла 11 KB


Размер: 257 MB
Хэш (hash) релиза: 51cb511239b7b5dab5fbc3e60631a96e1f4b86b3

Еще никто не оставлял запись к записи скачать торрент Viva Brother - Famous First Words - 2011 . Будь первым!

!Обратная связь