Скачать через торрент музыку Steevi Jaimz - My Private Hell - 2009, FLAC бесплатно без регистрации torrent

Если у вас наблюдаются проблемы со скриншотами, переходом по ссылками, скачиванием торрентов - проблемы в блокировщике рекламы AdBlock. #хорошегоДня!


Статистика раздачи
Размер:  303 MB   |    Зарегистрирован:  5 лет 2 месяца   |    .torrent скачан:  5 раз   |   
Раздают:  1  
   
Загрузка...
 
Автор Сообщение

Galfimbul

avatar Galfimbul


Steevi Jaimz (2009) / My Private Hell

Жанр: Hard Rock / Glam
Страна-производитель диска: ?
Год издания: 2009
Номер по каталогу: scs001-2
Страна: UK
Аудиокодек: FLAC (*.flac)
Тип рипа: image+.cue
Битрейт аудио: lossless
Продолжительность: 0.36.56
Источник (релизер): Собственный диск
Наличие сканов в содержимом раздачи: да
Треклист:
My Private Hell

01. Amazing 03:17
02. Donґt Say Itґs Over 03:16
03. Something Good Something Bad 04:09
04. Still Crazy 03:36
05. Little Sistah 03:51
06. My Private Hell 03:22
07. Kiss Of Death 03:22
08. I Donґt Wanna Walk Away 05:07
09. Dancinґ With Danger 02:57
10. Kikk It Down 03:54
Exact Audio Copy V0.99 prebeta 5 from 4. May 2009

Отчёт EAC об извлечении, выполненном 9. августа 2012, 17:25

Jaimz, Steevi / My Private Hell

Дисковод: ASUS DVD-E616P Adapter: 2 ID: 1

Режим чтения : ДостоверностьИспользование точного потока : ДаОтключение кэша аудио : ДаИспользование указателей C2 : Нет

Коррекция смещения при чтении : 102Способность читать области Lead-in и Lead-out : НетЗаполнение пропущенных сэмплов тишиной : ДаУдаление блоков с тишиной в начале и конце : НетПри вычислениях CRC использовались нулевые сэмплы : ДаИнтерфейс : Встроенный Win32-интерфейс для Win NT/2000

Выходной формат : Внутренние WAV-операцииФормат сэмплов : 44.100 Гц; 16 бит; стерео

TOC извлечённого CD

Трек | Старт | Длительность | Начальный сектор | Конечный сектор --------------------------------------------------------------------- 1 | 0:00.00 | 3:17.28 | 0 | 14802 2 | 3:17.28 | 3:16.19 | 14803 | 29521 3 | 6:33.47 | 4:09.25 | 29522 | 48221 4 | 10:42.72 | 3:36.61 | 48222 | 64482 5 | 14:19.58 | 3:51.51 | 64483 | 81858 6 | 18:11.34 | 3:22.43 | 81859 | 97051 7 | 21:34.02 | 3:22.17 | 97052 | 112218 8 | 24:56.19 | 5:07.14 | 112219 | 135257 9 | 30:03.33 | 2:57.62 | 135258 | 148594 10 | 33:01.20 | 3:54.65 | 148595 | 166209

Характеристики диапазона извлечения и сообщения об ошибках

Выбранный диапазон

Имя файла E:\Загрузки\Музыка\Jaimz, Steevi - My Private Hell.cue\Jaimz, Steevi - My Private Hell.wav

Пиковый уровень 99.8 % Качество диапазона 100.0 % CRC копии 61D574A5 Копирование... OK

Ошибок не произошло
REM GENRE "Hard Rock"REM DATE 2009REM DISCID 9B08A80AREM COMMENT "ExactAudioCopy v0.99pb5"PERFORMER "Jaimz, Steevi"TITLE "My Private Hell"FILE "Jaimz, Steevi - My Private Hell.flac" WAVE TRACK 01 AUDIO TITLE "Amazing" PERFORMER "Jaimz, Steevi" INDEX 01 00:00:00 TRACK 02 AUDIO TITLE "Donґt Say Itґs Over" PERFORMER "Jaimz, Steevi" INDEX 00 03:17:24 INDEX 01 03:17:28 TRACK 03 AUDIO TITLE "Something Good Something Bad" PERFORMER "Jaimz, Steevi" INDEX 00 06:32:50 INDEX 01 06:33:47 TRACK 04 AUDIO TITLE "Still Crazy" PERFORMER "Jaimz, Steevi" INDEX 00 10:42:69 INDEX 01 10:42:72 TRACK 05 AUDIO TITLE "Little Sistah" PERFORMER "Jaimz, Steevi" INDEX 00 14:19:56 INDEX 01 14:19:58 TRACK 06 AUDIO TITLE "My Private Hell" PERFORMER "Jaimz, Steevi" INDEX 00 18:11:00 INDEX 01 18:11:34 TRACK 07 AUDIO TITLE "Kiss Of Death" PERFORMER "Jaimz, Steevi" INDEX 00 21:33:04 INDEX 01 21:34:02 TRACK 08 AUDIO TITLE "I Donґt Wanna Walk Away" PERFORMER "Jaimz, Steevi" INDEX 00 24:55:18 INDEX 01 24:56:19 TRACK 09 AUDIO TITLE "Dancinґ With Danger" PERFORMER "Jaimz, Steevi" INDEX 00 30:03:03 INDEX 01 30:03:33 TRACK 10 AUDIO TITLE "Kikk It Down" PERFORMER "Jaimz, Steevi" INDEX 00 33:00:54 INDEX 01 33:01:20
AUDIOCHECKER v2.0 beta (build 457) - by Dester - <a href="mailto:opdester@freemail.hu" class="postLink">opdester@freemail.hu</a>~~~~~~~~~~~~~~~~~~~~~~~~~~~~~~~~~~-=== НЕ РЕДАКТИРУЙТЕ ЭТОТ ФАЙЛ! ===-

Путь: ...\Jaimz, Steevi - My Private Hell.cue

1 -=- Jaimz, Steevi - My Private Hell.flac -=- CDDA (100%)

13919780


Трекер:  [ 10-Авг-2012 13:40 ]

  

Скачать .torrent

Размер .torrent файла 13 KB


Размер: 303 MB
Хэш (hash) релиза: 122c7eb9959f15e1bd9d063c23d3229999718895

Еще никто не оставлял запись к записи скачать торрент Steevi Jaimz - My Private Hell - 2009, FLAC . Будь первым!

!Обратная связь