Скачать через торрент Морской бой Battleship бесплатно русская версия torrent активатор

Если у вас наблюдаются проблемы со скриншотами, переходом по ссылками, скачиванием торрентов - проблемы в блокировщике рекламы AdBlock. #хорошегоДня!


Статистика раздачи
Размер:  724 MB   |    Зарегистрирован:  5 лет 2 месяца   |    .torrent скачан:  100 раз   |   
Раздают:  1  
   
Загрузка...
 
Автор Сообщение

Galfimbul

avatar Galfimbul


Морской бой
Battleship
Год выпуска: 2012
Страна: США
Жанр: Фантастика, боевик, триллер
Продолжительность: 02:11:14
Перевод: Профессиональный (полное дублирование) LINE
Режиссер: Питер Берг / Peter Berg
Сценарий: Эрих Хобер, Джон Хобер
Продюсер: Скотт Стубер, Сара Обри, Питер Берг, ...
Оператор: Тобиас Э. Шлисслер
Композитор: Стив Яблонски
Художник: Нил Спайсэк, Том Фролинг, Аарон Хайне, ...
Монтаж: Колби Паркер мл., Билли Рич, Пол Рубелл
В ролях: Александр Скарсгард, Бруклин Декер, Лиам Нисон, Рианна, Тейлор Китч, Таданобу Асано, Джон Туи, Грегори Д. Гэдсон, Джесси Племонс, Хамиш Линклэйтер
Описание: Мы посылаем сигналы в космос и ждем ответа. Но уверены ли мы, что хотим его получить? Что если пришельцы потенциально опасны? В 2009 году на конференции в Вашингтоне астронавт Эдгар Митчелл, побывавший на Луне, сделал сенсационное заявление о существовании внеземной жизни. Теперь мы знаем, контакт не просто возможен, он неизбежен!
КиноПоиск.Ru: 6.949 (19 168)
IMDb: 6.10 (46 380)
Качество: HDRip
Формат: MP4
Видео кодек: H.264
Аудио кодек: AAC
Видео: 480x200 (2.40:1), 23.976 fps, 640 kbps
Аудио : 48 kHz, 2 ch, 128 kbps
General
Complete name : D:\Мои раздачи\Battleship\Battleship.mp4
Format : MPEG-4
Format profile : Base Media
Codec ID : isom
File size : 724 MiB
Duration : 2h 11mn
Overall bit rate mode : Variable
Overall bit rate : 772 Kbps
Performer : Питер Берг
Genre : Action & Adventure
Encoded date : UTC 2012-08-08 14:58:47
Tagged date : UTC 2012-08-08 14:58:47
Writing application : Yamb 2.1.0.0 []http://yamb.unite-video.com]
Cover : Yes
desc : Мы посылаем сигналы в космос и ждем ответа. Но уверены ли мы, что хотим его получить?..
ldes : Мы посылаем сигналы в космос и ждем ответа. Но уверены ли мы, что хотим его получить? Что если пришельцы потенциально опасны? В 2009 году на конференции в Вашингтоне астронавт Эдгар Митчелл, побывавший на Луне, сделал сенсационное заявление о существовании внеземной жизни. Теперь мы знаем, контакт не просто возможен, он неизбежен!
stik : 0
iTunMOVI : <?xml version="1.0" encoding="UTF-8"?> / <!DOCTYPE plist PUBLIC "-//Apple//DTD PLIST 1.0//EN" "http://www.apple.com/DTDs/PropertyList-1.0.dtd"> / <plist version="1.0"> / <dict> / <key>cast</key> / <array> / <dict> / <key>name</key> / <string>Александр Скарсгард</string> / </dict> / <dict> / <key>name</key> / <string>Бруклин Декер</string> / </dict> / <dict> / <key>name</key> / <string>Лиам Нисон</string> / </dict> / <dict> / <key>name</key> / <string>Рианна</string> / </dict> / <dict> / <key>name</key> / <string>Тейлор Китч</string> / </dict> / <dict> / <key>name</key> / <string>Таданобу Асано</string> / </dict> / <dict> / <key>name</key> / <string>Джон Туи</string> / </dict> / <dict> / <key>name</key> / <string>Грегори Д. Гэдсон</string> / </dict> / <dict> / <key>name</key> / <string>Джесси Племонс</string> / </dict> / <dict> / <key>name</key> / <string>Хамиш Линклэйтер</string> / </dict> / </array> / <key>directors</key> / <array> / <dict> / <key>name</key> / <string>Питер Берг</string> / </dict> / </array> / </dict> / </plist>
iTunEXTC : mpaa|PG-13|300|

Video
ID : 1
Format : AVC
Format/Info : Advanced Video Codec
Format profile : <a href="mailto:Baseline@L3.0" class="postLink">Baseline@L3.0</a>
Format settings, CABAC : No
Format settings, ReFrames : 6 frames
Format settings, GOP : N=1
Codec ID : avc1
Codec ID/Info : Advanced Video Coding
Duration : 2h 11mn
Bit rate : 640 Kbps
Maximum bit rate : 3 171 Kbps
Width : 480 pixels
Height : 200 pixels
Display aspect ratio : 2.40:1
Frame rate mode : Constant
Frame rate : 23.976 fps
Color space : YUV
Chroma subsampling : 4:2:0
Bit depth : 8 bits
Scan type : Progressive
Bits/(Pixel*Frame) : 0.278
Stream size : 601 MiB (83%)
Writing library : x264 core 120 r2120+639 552713c
Encoding settings : cabac=0 / ref=6 / deblock=1:-1:-1 / analyse=0x1:0x111 / me=umh / subme=9 / psy=1 / fade_compensate=0.00 / psy_rd=1.00:0.00 / mixed_ref=1 / me_range=16 / chroma_me=1 / trellis=0 / 8x8dct=0 / cqm=0 / deadzone=21,11 / fast_pskip=0 / chroma_qp_offset=-2 / threads=6 / sliced_threads=0 / nr=0 / decimate=0 / interlaced=0 / bluray_compat=0 / constrained_intra=0 / fgo=0 / bframes=0 / weightp=0 / keyint=250 / keyint_min=23 / scenecut=40 / intra_refresh=0 / rc_lookahead=60 / rc=2pass / mbtree=1 / bitrate=640 / ratetol=1.0 / qcomp=0.60 / qpmin=0 / qpmax=69 / qpstep=4 / cplxblur=20.0 / qblur=0.5 / ip_ratio=1.40 / aq=1:1.00
Encoded date : UTC 2012-08-09 13:03:00
Tagged date : UTC 2012-08-08 14:59:21

Audio
ID : 2
Format : AAC
Format/Info : Advanced Audio Codec
Format profile : LC
Codec ID : 40
Duration : 2h 11mn
Bit rate mode : Variable
Bit rate : 128 Kbps
Maximum bit rate : 131 Kbps
Channel(s) : 2 channels
Channel positions : Front: L R
Sampling rate : 48.0 KHz
Compression mode : Lossy
Stream size : 120 MiB (17%)
Language : Russian
Encoded date : UTC 2012-08-08 14:59:19
Tagged date : UTC 2012-08-08 14:59:21


Трекер:  [ 10-Авг-2012 19:02 ]

  

Скачать .torrent

Размер .torrent файла 14 KB


Размер: 724 MB
Хэш (hash) релиза: 5a8802440708cebeda7b727a09e0113967ec8d63

Торренты, похожие на Морской бой Battleship скачать торрент

Форум Название Автор Размер S L Добавлен
Видео (iPhone/iPod Touch/iPad) ·· Морской бой / Battleship (Питер Берг) [2012, США, фантастика, боевик, триллер, приключения, BDRip HD (1080p, 720p), SD (480p)] DUB, Original + SUB (rus forced, rus, eng) Galfimbul 2244112915620.9 GB 0 0 1489605710

22:21

15-Мар-17

Видео (Фильмы/Клипы) ·· [VIDEO] Морской бой / Battleship (Питер Берг / Peter Berg) [2012, США, фантастика, боевик, триллер, BDRip] [3GP, 320x] Galfimbul 459769659438 MB 0 0 1417543672

21:07

2-Дек-14

Видео (Фильмы/Клипы) ·· [VIDEO] Морской Бой / Battleship (Питер Берг / Peter Berg) [2012г, США, фантастика, боевик, триллер, BDRip][MP4, 640x] Galfimbul 11910143961.11 GB 0 0 1359016860

11:41

24-Янв-13

Видео (Фильмы/Клипы) ·· [VIDEO]Морской бой / Battleship (Питер Берг / Peter Berg) [2012, США, Фантастика, боевик, триллер, HDRip][MP4, 640х] Galfimbul 11104921851.03 GB 0 0 1344614580

19:03

10-Авг-12

Android OS (Игры/Программы/Прошивка) ·· [Android] BattleShip / Морской бой 1.1.1 [Аркада, Любое, RUS] Galfimbul 1182446411 MB 0 0 1378133603

17:53

2-Сен-13

Еще никто не оставлял запись к записи скачать торрент Морской бой Battleship . Будь первым!

!Обратная связь