Скачать через торрент музыку Günter бесплатно без регистрации torrent

Если у вас наблюдаются проблемы со скриншотами, переходом по ссылками, скачиванием торрентов - проблемы в блокировщике рекламы AdBlock. #хорошегоДня!


Статистика раздачи
Размер:  234 MB   |    Зарегистрирован:  5 лет 3 месяца   |    .torrent скачан:  17 раз   |   
Раздают:  1  
   
Загрузка...
 
Автор Сообщение

Galfimbul

avatar Galfimbul


Günter Schickert / Überfällig
Жанр: Krautrock, Progressive Electronic, Space Rock
Год издания: 1979 (2012)
Издатель (лейбл): Bureau B
Номер по каталогу: BB 96
Страна: Germany
Аудиокодек: FLAC (*.flac)
Тип рипа: tracks+.cue
Битрейт аудио: lossless
Продолжительность: 41:30
Источник (релизер): вата (iheartcomics)
Наличие сканов в содержимом раздачи: нет

Треклист:

1. Puls /Lyrics By – Charles M. Heuer/ - 14:39
2. In Der Zeit /Lyrics By, Vocals – Brigitta Nabucet/ - 5:10
3. Apricot Brandy II /Lyrics By, Vocals – Günter Schickert/ - 11:50
4. Wanderer /Lyrics By – Biene Krüger/ - 9:50.
Puls
|| progarchives || echodrive || rateyourmusic || discogs ||
Exact Audio Copy V1.0 beta 3 from 29. August 2011

EAC extraction logfile from 8. August 2012, 17:17

Günter Schickert / Überfällig

Used drive : DTSOFT BDROM Adapter: 1 ID: 0

Read mode : SecureUtilize accurate stream : YesDefeat audio cache : YesMake use of C2 pointers : No

Read offset correction : 30Overread into Lead-In and Lead-Out : NoFill up missing offset samples with silence : YesDelete leading and trailing silent blocks : NoNull samples used in CRC calculations : YesUsed interface : Native Win32 interface for Win NT & 2000Gap handling : Appended to previous track

Used output format : User Defined EncoderSelected bitrate : 1024 kBit/sQuality : HighAdd ID3 tag : NoCommand line compressor : C:\Program Files\Exact Audio Copy\Flac\flac.exeAdditional command line options : -8 -V -T "ARTIST=%artist%" -T "TITLE=%title%" -T "ALBUM=%albumtitle%" -T "DATE=%year%" -T "TRACKNUMBER=%tracknr%" -T "GENRE=%genre%" -T "PERFORMER=%albuminterpret%" -T "COMPOSER=%composer%" %haslyrics%--tag-from-file=LYRICS="%lyricsfile%"%haslyrics% -T "ALBUMARTIST=%albumartist%" -T "DISCNUMBER=%cdnumber%" -T "TOTALDISCS=%totalcds%" -T "TOTALTRACKS=%numtracks%" -T "COMMENT=%comment%" %source% -o %dest%

TOC of the extracted CD

Track | Start | Length | Start sector | End sector --------------------------------------------------------- 1 | 0:00.00 | 14:55.68 | 0 | 67192 2 | 14:55.68 | 4:50.23 | 67193 | 88965 3 | 19:46.16 | 13:00.67 | 88966 | 147532 4 | 32:47.08 | 8:42.51 | 147533 | 186733

Track 1

Filename C:\Users\Owner\Documents\Günter Schickert - Überfällig\01 - Puls.wav

Pre-gap length 0:00:02.00

Peak level 98.8 % Extraction speed 53.8 X Track quality 100.0 % Test CRC 4E222F48 Copy CRC 4E222F48 Track not present in AccurateRip database Copy OK

Track 2

Filename C:\Users\Owner\Documents\Günter Schickert - Überfällig\02 - In Der Zeit.wav

Pre-gap length 0:00:02.08

Peak level 98.8 % Extraction speed 59.8 X Track quality 100.0 % Test CRC 301A4B5D Copy CRC 301A4B5D Track not present in AccurateRip database Copy OK

Track 3

Filename C:\Users\Owner\Documents\Günter Schickert - Überfällig\03 - Apricot Brandy II.wav

Pre-gap length 0:00:01.29

Peak level 98.8 % Extraction speed 55.1 X Track quality 100.0 % Test CRC 847A6C97 Copy CRC 847A6C97 Track not present in AccurateRip database Copy OK

Track 4

Filename C:\Users\Owner\Documents\Günter Schickert - Überfällig\04 - Wanderer.wav

Peak level 96.3 % Extraction speed 47.6 X Track quality 100.0 % Test CRC 0AFD161C Copy CRC 0AFD161C Track not present in AccurateRip database Copy OK

None of the tracks are present in the AccurateRip database

No errors occurred

End of status report

==== Log checksum E696849425A2E4BE6C77EDCDA5D0FF3670A101C81A4CD8CBDFA69AEAB460854B ====
REM GENRE SpaceREM DATE 2012REM DISCID 4509B904REM COMMENT "ExactAudioCopy v1.0b3"CATALOG 4047179231626PERFORMER "Gunter Schickert"TITLE "Ьberfдllig"FILE "01 - Puls.wav" WAVE TRACK 01 AUDIO TITLE "Puls" PERFORMER "Gunter Schickert" ISRC DELI51100660 INDEX 01 00:00:00 TRACK 02 AUDIO TITLE "In Der Zeit" PERFORMER "Gunter Schickert" ISRC DELI51100661 INDEX 00 14:53:62FILE "02 - In Der Zeit.wav" WAVE INDEX 01 00:00:00 TRACK 03 AUDIO TITLE "Apricot Brandy II" PERFORMER "Gunter Schickert" ISRC DELI51100662 INDEX 00 04:49:01FILE "03 - Apricot Brandy II.wav" WAVE INDEX 01 00:00:00FILE "04 - Wanderer.wav" WAVE TRACK 04 AUDIO TITLE "Wanderer" PERFORMER "Gunter Schickert" ISRC DELI51100663 INDEX 01 00:00:00
CUETools log; Date: 09.08.2012 12:59:05; Version: 2.1.1][CTDB TOCID: d.1nvbvaHzzOPs40Jv_7JX_bEoQ-] found. [ CTDBID ] Status [7f11c9ee] (1/1) Accurately ripped[AccurateRip ID: 00077bba-001d5fdf-4509b904] disk not present in database.

Track Peak [ CRC32 ] [W/O NULL] [ LOG ] -- 98,8 [86603491] [0BC51665] 01 98,8 [4E222F48] [C3A39E56] CRC32 02 98,8 [301A4B5D] [460CC8AB] CRC32 03 98,8 [847A6C97] [EFABC625] CRC32 04 96,3 [0AFD161C] [D2C79747] CRC32
----------------------

DON'T MODIFY THIS FILE

-----------------------

PERFORMER: auCDtect Task Manager, ver. 1.5.1RC4 build 1.5.1.5Copyright (c) 2008-2010 y-soft. All rights reservedhttp://y-soft.org

ANALYZER: auCDtect: CD records authenticity detector, version 0.8.2Copyright (c) 2004 Oleg Berngardt. All rights reserved.Copyright (c) 2004 Alexander Djourik. All rights reserved.

FILE: 01 - Puls.flac Size: 92219181 Hash: 2EFDB659BB62A5C6149761F297F7C5C3 Accuracy: -m0 Conclusion: CDDA 100% Signature: BB31BA13ABAA8AF704090A6E9AAEA403DB975194FILE: 04 - Wanderer.flac Size: 48427775 Hash: 5461544DA4F2E1413C4B018D6A92F04D Accuracy: -m0 Conclusion: CDDA 100% Signature: CA1AFF50575974B4CD09AF331527A37CB6711F9FFILE: 03 - Apricot Brandy II.flac Size: 81529891 Hash: D747CCE46DC01C3F1C5EC5030DAC0896 Accuracy: -m0 Conclusion: CDDA 100% Signature: 0CCDACF9E2510B40C57C0FE0A1BCA184B8A5AE8AFILE: 02 - In Der Zeit.flac Size: 22766370 Hash: CFEC89EFCD4F9AA7971F81140147D3ED Accuracy: -m0 Conclusion: CDDA 100% Signature: 14C561E1FB6A49E5D1D1B7A7FEEEAD880788B7A6
Gunter Schickert biography

Founder member of the trio GAM (spaced out rocking improvisations), Gunter Schickert also has a fruitful career in solo, figuring among the pioneers of the echo guitar (with Achim Reichel and Manuel Gottsching). He worked in collaboration with Klaus Schulze in 1975 for "Home Session". His two first classic albums "Samtvogel" (1975) and "Uberfallig" (1977) explore the fundamental weird-acid experiences of krautrock with emphasis on hypno guitar loops ("Uberfallig"). His releases from the 80's and the compilation "Somnambul" (1995) feature trancey like electronic soundscapes. In a certain way the first releases can be seen as an hybrid between Ashra Tempel's mystical trippy jams and Achim Reichel's colourful echo guitar motifs. The last works remind some Manuel Gottsching's minimalist, extatic guitar inventions or Richard Pinhas's menacing, supernatural electronic textures. An ambitious and talented career with lot of explorative tendances.

: : : Philippe Blache, FRANCE : : :
http://www.progarchives.com/artist.asp?id=3376
Основатель и член известного трио GAM, Гюнтер Schickert также сделал плодотворную сольную карьеру, один из пионеров эхо гитары (наряду с Achim Reichel и Manuel Gottsching).
Günter Schickert ‎– Überfällig

Few people outside of a small fraternity of German music specialists probably even remember the name Günter Schickert, and it's no exaggeration to call his 1979 album "Überfällig" one of the lost treasures of late '70s Krautrock. For me, Schickert has remained an enigma for close to thirty years, ever since I gave up trying to decipher the dense, illegible scrawl of notes on the back of the LP (a pointless exercise anyway: it's all in German).
But he was certainly a unique talent, even within such a wildly creative music scene. Schickert's style, at least on this one album, employed multiple guitars to do (more or less) what KLAUS SCHULZE and EDGAR FROESE were at the same time doing with synthesizers and sequencers: building layers of sometimes dreamy, sometimes tense ostinato patterns over a subtle, shifting backbeat of driving percussion. The rhythms are often provided by a heavy application of echo to some unusual sound sources, transforming a single splash of water or a labored gasp of breath into a repetitive loop of hypnotic pulses.

The effect is especially striking on the two longer tracks here, the aptly titled album opener "Puls", and the almost 12-minute long "Apricot Brandy". The former has the cinematic momentum of a high-speed Hollywood chase; the latter is a psychedelic rocker accelerating from a semi-conscious dreamscape to a hyperkinetic rush of overlapping guitars and voices.

Relief is provided by the ballad "In Der Zeit", sung in an ominous half-whisper over an unadorned acoustic guitar, and in the album's haunting finale "Wanderer", a brooding piece of music perfectly matched to the empty autobahn pictured on the back cover.

Altogether the album is somewhat reminiscent of (ex-NEU!) guitarist MICHAEL ROTHER's early solo work, and in fact was originally released on the same label (the always reliable Sky Records). Schickert shared a similar approach to pristine guitar minimalism, but with a darker, more malevolent edge: he might have been the turbulent yin to Rother's more angelic yang.

It's reassuring to find that Günter Schickert hasn't been completely forgotten. And, by a funny coincidence, a translation of the album's title (Überfällig = Overdue) perfectly describes his status as a true Krautrock legend.

Review by Neu!mann
http://www.progarchives.com/album.asp?id=17359
Cпейс-краутрок, альбом из потерянных сокровищ краут-рока конца 70-х.
- Günter Schickert / guitar, voice
- Charles M. Heuer / drumms, percussion, voice
- Brigitta Nabucet / lyrics and voice (2)
- Biene Krüger / voice (4)



Трекер:  [ 10-Авг-2012 13:40 ]

  

Скачать .torrent

Размер .torrent файла 19 KB


Размер: 234 MB
Хэш (hash) релиза: 6afab54285508d9a1a776b28532d7baf9c47cd08

Торренты, похожие на Günter скачать торрент

Форум Название Автор Размер S L Добавлен
Электронная музыка (mp3) ·· (Electronic | Krautrock) Klaus Schulze and Gunter (Günter) Schickert - The Schulze-Schickert Session - 2013, MP3, 320 kbps Galfimbul 160134524153 MB 0 0 1367765722

17:55

5-Май-13

Еще никто не оставлял запись к записи скачать торрент Günter . Будь первым!

!Обратная связь