Скачать через торрент музыку Mike Oldfield - QE2 бесплатно без регистрации torrent

Если у вас наблюдаются проблемы со скриншотами, переходом по ссылками, скачиванием торрентов - проблемы в блокировщике рекламы AdBlock. #хорошегоДня!


Статистика раздачи
Размер:  901 MB   |    Зарегистрирован:  5 лет 3 месяца   |    .torrent скачан:  34 раза   |   
Раздают:  1   Качают:  2  
   
Загрузка...
 
Автор Сообщение

Galfimbul

avatar Galfimbul


Mike Oldfield / QE2 (2012, 2CD, Deluxe Edition, Remastered, Mercury Record, 533941-8)

Жанр: Progressive Rock
Страна-производитель диска: EU
Оригинальный год издания: 1980
Год издания: 2012
Издатель (лейбл): Mercury Record Limited
Номер по каталогу: 533941-8, 0600753394182
Страна: England
Аудиокодек: FLAC (*.flac)
Тип рипа: image+.cue
Битрейт аудио: lossless
Продолжительность: 02:09:26
Источник (релизер): собственный
Наличие сканов в содержимом раздачи: да (Ping, 300dpi, 135Mb)
01. Taurus 1 - 10:16
02. Sheba - 3:33
03. Conflict - 2:52
04. Arrival - 2:50
05. Wonderful Land - 3:38
06. Mirage - 4:41
07. QE2 - 7:38
08. Celt - 3:05
09. Molly - 1:20
10. Polka (live 1980) - 3:39
11. Wonderful Land (single version) - 2:54
12. Shiva - 3:35
01. Taurus (Live) - 11:17
02. Sheba (Live) - 3:28
03. Mirage (Live) - 5:15
04. Conflict (Live) - 5:19
05. Ommadawn (Live) - 21:58
06. Punkadiddle (Live) - 5:45
07. Tubular Bells {Part One} (Live) - 18:59
08. QE2 (Live) - 4:55
09. Portsmouth (Live) - 2:28

Amazon | Discogs | Wikipedia | Facebook | Official page
Exact Audio Copy V1.0 beta 1 from 15. November 2010

EAC extraction logfile from 9. August 2012, 22:39

Mike Oldfield / QE2 (2012 remastered deluxe edition) (Disc 1)

Used drive : Optiarc DVD RW AD-5200S Adapter: 2 ID: 0

Read mode : SecureUtilize accurate stream : YesDefeat audio cache : YesMake use of C2 pointers : No

Read offset correction : 48Overread into Lead-In and Lead-Out : NoFill up missing offset samples with silence : YesDelete leading and trailing silent blocks : NoNull samples used in CRC calculations : YesUsed interface : Native Win32 interface for Win NT & 2000

Used output format : User Defined EncoderSelected bitrate : 1024 kBit/sQuality : HighAdd ID3 tag : NoCommand line compressor : C:\Program Files (x86)\Exact Audio Copy\FLAC\FLAC.EXEAdditional command line options : -8 -V %s

TOC of the extracted CD

Track | Start | Length | Start sector | End sector --------------------------------------------------------- 1 | 0:00.00 | 10:16.37 | 0 | 46236 2 | 10:16.37 | 3:33.03 | 46237 | 62214 3 | 13:49.40 | 2:51.71 | 62215 | 75110 4 | 16:41.36 | 2:50.05 | 75111 | 87865 5 | 19:31.41 | 3:38.04 | 87866 | 104219 6 | 23:09.45 | 4:40.40 | 104220 | 125259 7 | 27:50.10 | 7:37.54 | 125260 | 159588 8 | 35:27.64 | 3:05.23 | 159589 | 173486 9 | 38:33.12 | 1:20.18 | 173487 | 179504 10 | 39:53.30 | 3:39.08 | 179505 | 195937 11 | 43:32.38 | 2:53.56 | 195938 | 208968 12 | 46:26.19 | 3:34.65 | 208969 | 225083

Range status and errors

Selected range

Filename G:\Download\Музыка LossLess\Mike Oldfield\2012 - Mike Oldfield - QE2 (Remastered Deluxe Edition)\CD1 - Remastered Album\Mike Oldfield - QE2 (2012 remastered deluxe edition) (Disc 1).wav

Peak level 98.8 % Extraction speed 0.2 X Range quality 100.0 % Test CRC 6EFF390A Copy CRC 6EFF390A Copy OK

No errors occurred

AccurateRip summary

Track 1 not present in databaseTrack 2 not present in databaseTrack 3 not present in databaseTrack 4 not present in databaseTrack 5 not present in databaseTrack 6 not present in databaseTrack 7 not present in databaseTrack 8 not present in databaseTrack 9 not present in databaseTrack 10 not present in databaseTrack 11 not present in databaseTrack 12 not present in database

None of the tracks are present in the AccurateRip database

End of status report
Exact Audio Copy V1.0 beta 1 from 15. November 2010

EAC extraction logfile from 10. August 2012, 0:52

Mike Oldfield / QE2 (2012 remastered deluxe edition) (Disc 2)

Used drive : Optiarc DVD RW AD-5200S Adapter: 2 ID: 0

Read mode : SecureUtilize accurate stream : YesDefeat audio cache : YesMake use of C2 pointers : No

Read offset correction : 48Overread into Lead-In and Lead-Out : NoFill up missing offset samples with silence : YesDelete leading and trailing silent blocks : NoNull samples used in CRC calculations : YesUsed interface : Native Win32 interface for Win NT & 2000

Used output format : User Defined EncoderSelected bitrate : 1024 kBit/sQuality : HighAdd ID3 tag : NoCommand line compressor : C:\Program Files (x86)\Exact Audio Copy\FLAC\FLAC.EXEAdditional command line options : -8 -V %s

TOC of the extracted CD

Track | Start | Length | Start sector | End sector --------------------------------------------------------- 1 | 0:00.00 | 11:17.33 | 0 | 50807 2 | 11:17.33 | 3:27.70 | 50808 | 66402 3 | 14:45.28 | 5:14.40 | 66403 | 89992 4 | 19:59.68 | 5:19.34 | 89993 | 113951 5 | 25:19.27 | 21:57.57 | 113952 | 212783 6 | 47:17.09 | 5:44.74 | 212784 | 238657 7 | 53:02.08 | 18:58.72 | 238658 | 324079 8 | 72:01.05 | 4:55.34 | 324080 | 346238 9 | 76:56.39 | 2:28.21 | 346239 | 357359

Range status and errors

Selected range

Filename G:\CD2 - Live from The European Adventure Tour\Mike Oldfield - QE2 (2012 remastered deluxe edition) (Disc 2).wav

Peak level 98.8 % Extraction speed 0.1 X Range quality 99.9 % Test CRC 55DE7BA6 Copy CRC 55DE7BA6 Copy OK

No errors occurred

AccurateRip summary

Track 1 not present in databaseTrack 2 not present in databaseTrack 3 not present in databaseTrack 4 not present in databaseTrack 5 not present in databaseTrack 6 not present in databaseTrack 7 not present in databaseTrack 8 not present in databaseTrack 9 not present in database

None of the tracks are present in the AccurateRip database

End of status report
AUDIOCHECKER v2.0 beta (build 457) - by Dester - <a href="mailto:opdester@freemail.hu" class="postLink">opdester@freemail.hu</a>~~~~~~~~~~~~~~~~~~~~~~~~~~~~~~~~~~-=== DO NOT EDIT THIS FILE! ===-

Path: ...\CD1 - Remastered Album

1 -=- Mike Oldfield - QE2 (2012 remastered deluxe edition) (Disc 1).flac -=- CDDA (100%)

26007588
AUDIOCHECKER v2.0 beta (build 457) - by Dester - <a href="mailto:opdester@freemail.hu" class="postLink">opdester@freemail.hu</a>~~~~~~~~~~~~~~~~~~~~~~~~~~~~~~~~~~-=== DO NOT EDIT THIS FILE! ===-

Path: ...\CD2 - Live from The European Adventure Tour

1 -=- Mike Oldfield - QE2 (2012 remastered deluxe edition) (Disc 2).flac -=- CDDA (100%)

24238116
The album "QE2" will be re-released by Mercury Records on 30 July 2012. This comes as part of a deal in which Oldfield's Virgin albums were transferred to the label. It is being released on the same day as Platinum and a year after the last Universal reissue of Incantations. The first disc is the original recording remastered with bonus material, and the second disc (available in the deluxe edition) is a live concert recorded at the time of the album's original release.


Трекер:  [ 10-Авг-2012 13:40 ]

  

Скачать .torrent

Размер .torrent файла 20 KB


Размер: 901 MB
Хэш (hash) релиза: a29ff74eb02c81c54ee86406948fb826ca3a5d11

Еще никто не оставлял запись к записи скачать торрент Mike Oldfield - QE2 . Будь первым!

!Обратная связь