Скачать через торрент музыку Outloud - More Catastrophe бесплатно без регистрации torrent

Если у вас наблюдаются проблемы со скриншотами, переходом по ссылками, скачиванием торрентов - проблемы в блокировщике рекламы AdBlock. #хорошегоДня!


Статистика раздачи
Размер:  194 MB   |    Зарегистрирован:  5 лет 2 месяца   |    .torrent скачан:  15 раз   |   
Раздают:  1  
   
Загрузка...
 
Автор Сообщение

Galfimbul

avatar Galfimbul


Outloud / More Catastrophe (EP)

Жанр: Melodic Hard Rock
Страна-производитель диска: Germany
Год издания: 2012
Издатель (лейбл): AOR Heaven
Номер по каталогу: AORH00070
Страна: Greece
Аудиокодек: FLAC (*.flac)
Тип рипа: image+.cue
Битрейт аудио: lossless
Продолжительность: 24 минуты
Источник (релизер): собственный рип
Наличие сканов в содержимом раздачи: да

Треклист:

1. Saints On Fire - 3:53
2. Cross The Line - 3:27
3. Mr. Long Gone - 3:44
Previously unreleased tracks from the "Love Catastrophe" Sessions
4. The Last Days Of December - 4:47
iTunes Exclusive Christmas 2011 Song
5. Falling Rain (Flamenco Version) - 3:37
6. We Run (For Piano And Vocals) - 4:26
Alternate Acoustic Versions
Exact Audio Copy V1.0 beta 3 from 29. August 2011

EAC extraction logfile from 9. August 2012, 19:41

Outloud / More Catastrophe

Used drive : SlimtypeDVD A DS8A5SH Adapter: 0 ID: 1

Read mode : SecureUtilize accurate stream : YesDefeat audio cache : YesMake use of C2 pointers : No

Read offset correction : 6Overread into Lead-In and Lead-Out : NoFill up missing offset samples with silence : YesDelete leading and trailing silent blocks : NoNull samples used in CRC calculations : YesUsed interface : Native Win32 interface for Win NT & 2000

Used output format : User Defined EncoderSelected bitrate : 320 kBit/sQuality : HighAdd ID3 tag : NoCommand line compressor : C:\Program Files (x86)\Exact Audio Copy\Flac\flac.exeAdditional command line options : -V -8 -T "Date=%year%" -T "Genre=%genre%" %source%

TOC of the extracted CD

Track | Start | Length | Start sector | End sector --------------------------------------------------------- 1 | 0:00.00 | 3:53.10 | 0 | 17484 2 | 3:53.10 | 3:28.10 | 17485 | 33094 3 | 7:21.20 | 3:44.41 | 33095 | 49935 4 | 11:05.61 | 4:48.71 | 49936 | 71606 5 | 15:54.57 | 3:38.48 | 71607 | 88004 6 | 19:33.30 | 4:26.20 | 88005 | 107974

Range status and errors

Selected range

Filename D:\My Music\Outloud - 2012 More Catastrophe (EP)\Outloud - More Catastrophe.wav

Peak level 100.0 % Extraction speed 3.6 X Range quality 100.0 % Test CRC 485AE70B Copy CRC 485AE70B Copy OK

No errors occurred

AccurateRip summary

Track 1 not present in databaseTrack 2 not present in databaseTrack 3 not present in databaseTrack 4 not present in databaseTrack 5 not present in databaseTrack 6 not present in database

None of the tracks are present in the AccurateRip database

End of status report

==== Log checksum 126F591E46B9E78DBC8477E50A305B450CF9A1B2C4B49FBFE7D02820148C1709 ====


Трекер:  [ 09-Авг-2012 17:39 ]

  

Скачать .torrent

Размер .torrent файла 16 KB


Размер: 194 MB
Хэш (hash) релиза: 30adc057f37a5dd15c7121c71d56276cd14f5eda

Еще никто не оставлял запись к записи скачать торрент Outloud - More Catastrophe . Будь первым!

!Обратная связь