Скачать через торрент The Modern Lovers - The Modern Lovers - 1976 ALAC, lossless бесплатно русская версия torrent активатор

Если у вас наблюдаются проблемы со скриншотами, переходом по ссылками, скачиванием торрентов - проблемы в блокировщике рекламы AdBlock. #хорошегоДня!


Статистика раздачи
Размер:  283 MB   |    Зарегистрирован:  5 лет 2 месяца   |    .torrent скачан:  27 раз   |   
Раздают:  1  
   
Загрузка...
 
Автор Сообщение

Galfimbul

avatar Galfimbul


The Modern Lovers - The Modern Lovers

Год: 1976
Страна: US
Жанр: Punk Rock
Продолжительность: 44:06
Тексты: вшиты
Кодек: ALAC
Программа-риповщик : foobar2000 + iTunes (lossless)
Битрейт: lossless
Треклист:
01 Roadrunner 4:06
02 Astral Plane 3:01
03 Old World 4:03
04 Pablo Picasso 4:22
05 I'm Straight 4:18
06 Dignified And Old 2:29
07 She Cracked 2:56
08 Hospital 5:36
09 Someone I Care About 3:39
10 Girl Friend 3:55
11 Modern World 3:44
12 Government Center 2:03
Exact Audio Copy V1.0 beta 1 from 15. November 2010

EAC extraction logfile from 26. March 2011, 22:52

Modern Lovers / The Modern Lovers

Used drive : HL-DT-STDVDRAM GT20F Adapter: 2 ID: 0

Read mode : SecureUtilize accurate stream : YesDefeat audio cache : YesMake use of C2 pointers : No

Read offset correction : 667Overread into Lead-In and Lead-Out : NoFill up missing offset samples with silence : YesDelete leading and trailing silent blocks : NoNull samples used in CRC calculations : NoUsed interface : Native Win32 interface for Win NT & 2000Gap handling : Appended to previous track

Used output format : User Defined EncoderSelected bitrate : 768 kBit/sQuality : HighAdd ID3 tag : NoCommand line compressor : C:\Program Files (x86)\Exact Audio Copy\FLAC\FLAC.EXEAdditional command line options : -6 -V -T "ARTIST=%a" -T "TITLE=%t" -T "ALBUM=%g" -T "DATE=%y" -T "TRACKNUMBER=%n" -T "GENRE=%m" -T "COMMENT=%e" %j--picture="%i"%j %s -o %d

TOC of the extracted CD

Track | Start | Length | Start sector | End sector --------------------------------------------------------- 1 | 0:00.00 | 4:05.62 | 0 | 18436 2 | 4:05.62 | 3:00.65 | 18437 | 32001 3 | 7:06.52 | 4:03.15 | 32002 | 50241 4 | 11:09.67 | 4:21.55 | 50242 | 69871 5 | 15:31.47 | 4:18.33 | 69872 | 89254 6 | 19:50.05 | 2:29.15 | 89255 | 100444 7 | 22:19.20 | 2:56.15 | 100445 | 113659 8 | 25:15.35 | 5:35.40 | 113660 | 138824 9 | 30:51.00 | 3:39.27 | 138825 | 155276 10 | 34:30.27 | 3:54.60 | 155277 | 172886 11 | 38:25.12 | 3:43.68 | 172887 | 189679 12 | 42:09.05 | 2:03.32 | 189680 | 198936

Track 1

Filename C:\Users\Owner\Desktop\The Modern Lovers (Rhino, 1989)\Roadrunner.wav

Pre-gap length 0:00:02.00

Peak level 100.0 % Extraction speed 2.4 X Track quality 100.0 % Test CRC 12690157 Copy CRC 12690157 Accurately ripped (confidence 13) [212CCFEE] Copy OK

Track 2

Filename C:\Users\Owner\Desktop\The Modern Lovers (Rhino, 1989)\Astral Plane.wav

Pre-gap length 0:00:04.71

Peak level 98.7 % Extraction speed 2.5 X Track quality 100.0 % Test CRC 0881B691 Copy CRC 0881B691 Accurately ripped (confidence 13) [A4AC1492] Copy OK

Track 3

Filename C:\Users\Owner\Desktop\The Modern Lovers (Rhino, 1989)\Old World.wav

Pre-gap length 0:00:04.64

Peak level 94.5 % Extraction speed 2.9 X Track quality 100.0 % Test CRC 5E8E3088 Copy CRC 5E8E3088 Accurately ripped (confidence 13) [592859DD] Copy OK

Track 4

Filename C:\Users\Owner\Desktop\The Modern Lovers (Rhino, 1989)\Pablo Picasso.wav

Pre-gap length 0:00:06.06

Peak level 100.0 % Extraction speed 3.2 X Track quality 100.0 % Test CRC 716293CB Copy CRC 716293CB Accurately ripped (confidence 13) [903F4740] Copy OK

Track 5

Filename C:\Users\Owner\Desktop\The Modern Lovers (Rhino, 1989)\I'm Straight.wav

Pre-gap length 0:00:05.26

Peak level 99.9 % Extraction speed 3.4 X Track quality 100.0 % Test CRC 7C23751B Copy CRC 7C23751B Accurately ripped (confidence 13) [6CE22344] Copy OK

Track 6

Filename C:\Users\Owner\Desktop\The Modern Lovers (Rhino, 1989)\Dignified And Old.wav

Pre-gap length 0:00:04.54

Peak level 92.3 % Extraction speed 3.2 X Track quality 100.0 % Test CRC 58F24ACD Copy CRC 58F24ACD Accurately ripped (confidence 13) [9E6F7834] Copy OK

Track 7

Filename C:\Users\Owner\Desktop\The Modern Lovers (Rhino, 1989)\She Cracked.wav

Pre-gap length 0:00:05.22

Peak level 100.0 % Extraction speed 3.4 X Track quality 100.0 % Test CRC 346FF3D8 Copy CRC 346FF3D8 Accurately ripped (confidence 13) [672ED4ED] Copy OK

Track 8

Filename C:\Users\Owner\Desktop\The Modern Lovers (Rhino, 1989)\Hospital.wav

Pre-gap length 0:00:05.19

Peak level 81.7 % Extraction speed 4.0 X Track quality 100.0 % Test CRC 69D30C2E Copy CRC 69D30C2E Accurately ripped (confidence 13) [DE016CC4] Copy OK

Track 9

Filename C:\Users\Owner\Desktop\The Modern Lovers (Rhino, 1989)\Someone I Care About.wav

Pre-gap length 0:00:05.04

Peak level 100.0 % Extraction speed 3.9 X Track quality 100.0 % Test CRC B18C56F1 Copy CRC B18C56F1 Accurately ripped (confidence 13) [B2E84C4F] Copy OK

Track 10

Filename C:\Users\Owner\Desktop\The Modern Lovers (Rhino, 1989)\Girl Friend.wav

Pre-gap length 0:00:04.69

Peak level 100.0 % Extraction speed 4.1 X Track quality 100.0 % Test CRC 4E4B4C63 Copy CRC 4E4B4C63 Accurately ripped (confidence 13) [D5A4AC69] Copy OK

Track 11

Filename C:\Users\Owner\Desktop\The Modern Lovers (Rhino, 1989)\Modern World.wav

Pre-gap length 0:00:04.71

Peak level 100.0 % Extraction speed 4.3 X Track quality 100.0 % Test CRC 554CA362 Copy CRC 554CA362 Accurately ripped (confidence 13) [532B04DE] Copy OK

Track 12

Filename C:\Users\Owner\Desktop\The Modern Lovers (Rhino, 1989)\Government Center.wav

Pre-gap length 0:00:04.17

Peak level 94.1 % Extraction speed 3.9 X Track quality 100.0 % Test CRC C3068848 Copy CRC C3068848 Accurately ripped (confidence 12) [69158B04] Copy OK

All tracks accurately ripped

No errors occurred

End of status report


Трекер:  [ 10-Авг-2012 19:01 ]

  

Скачать .torrent

Размер .torrent файла 12 KB


Размер: 283 MB
Хэш (hash) релиза: 5588b78a339f584f61f1f2868b50bc8c8380700d

Еще никто не оставлял запись к записи скачать торрент The Modern Lovers - The Modern Lovers - 1976 ALAC, lossless . Будь первым!

!Обратная связь