Скачать через торрент музыку Deacon Blue - Your Town бесплатно без регистрации torrent

Если у вас наблюдаются проблемы со скриншотами, переходом по ссылками, скачиванием торрентов - проблемы в блокировщике рекламы AdBlock. #хорошегоДня!


Статистика раздачи
Размер:  116 MB   |    Зарегистрирован:  5 лет 3 месяца   |    .torrent скачан:  5 раз   |   
Раздают:  1  
   
Загрузка...
 
Автор Сообщение

Galfimbul

avatar Galfimbul


DEACON BLUE · YOUR TOWN
Жанр: Indie
Дата выпуска: 16 November 1992
Страна-производитель диска: Austria
Издатель: Columbia, 658786 2
Страна: UK
Аудио кодек: FLAC (*.flac)
Тип рипа: tracks+.cue
Битрейт аудио: lossless
Продолжительность: 11:01
Источник (релизер): собственный рип
Наличие сканов в содержимом раздачи: 600 dpi .png
Tracklist:
1. Your Town 4:19
2. Almost Beautiful 4:17
3. I've Been Making Such A Fool... 2:23
Exact Audio Copy V1.0 beta 3 from 29. August 2011

EAC extraction logfile from 4. August 2012, 0:02

Deacon Blue / Your Town [CDM] (658786 2)

Used drive : HL-DT-STDVDRW GSA-S10N Adapter: 0 ID: 1

Read mode : SecureUtilize accurate stream : YesDefeat audio cache : YesMake use of C2 pointers : No

Read offset correction : 667Overread into Lead-In and Lead-Out : NoFill up missing offset samples with silence : YesDelete leading and trailing silent blocks : NoNull samples used in CRC calculations : YesUsed interface : Native Win32 interface for Win NT & 2000Gap handling : Appended to previous track

Used output format : User Defined EncoderSelected bitrate : 768 kBit/sQuality : HighAdd ID3 tag : NoCommand line compressor : C:\Program Files\Exact Audio Copy 1.3\Flac\flac.exeAdditional command line options : -V -8 -T "Genre=%genre%" -T "Artist=%artist%" -T "Title=%title%" -T "Album=%albumtitle%" -T "Date=%year%" -T "Tracknumber=%tracknr%" -T "Comment=%comment%" %source%

TOC of the extracted CD

Track | Start | Length | Start sector | End sector --------------------------------------------------------- 1 | 0:00.00 | 4:19.60 | 0 | 19484 2 | 4:19.60 | 4:17.70 | 19485 | 38829 3 | 8:37.55 | 2:23.32 | 38830 | 49586

Track 1

Filename C:\Olaf der Weisse\Deacon Blue (1992) Your Town [CDM] (658786 2)\01 Your Town.wav

Pre-gap length 0:00:02.00

Peak level 100.0 % Extraction speed 1.1 X Track quality 100.0 % Test CRC AB3785D5 Copy CRC AB3785D5 Accurately ripped (confidence 10) [0B6E8F96] (AR v1) Copy OK

Track 2

Filename C:\Olaf der Weisse\Deacon Blue (1992) Your Town [CDM] (658786 2)\02 Almost Beautiful.wav

Pre-gap length 0:00:02.15

Peak level 99.5 % Extraction speed 1.3 X Track quality 99.9 % Test CRC 6569B04C Copy CRC 6569B04C Accurately ripped (confidence 10) [76CC3B0C] (AR v1) Copy OK

Track 3

Filename C:\Olaf der Weisse\Deacon Blue (1992) Your Town [CDM] (658786 2)\03 I've Been Making Such A Fool....wav

Pre-gap length 0:00:02.63

Peak level 99.9 % Extraction speed 1.2 X Track quality 99.9 % Test CRC 5D11FD0A Copy CRC 5D11FD0A Accurately ripped (confidence 10) [59CD451F] (AR v1) Copy OK

All tracks accurately ripped

No errors occurred

End of status report

==== Log checksum D5640EB1F7CF1121D80C0CB0680A371FBCD4D9464F73267D9CD194AACAAF3CF6 ====
REM GENRE IndieREM DATE 1992REM DISCID 1A029503REM COMMENT "ExactAudioCopy v1.0b3"PERFORMER "Deacon Blue"TITLE "Your Town [CDM] (658786 2)"FILE "01 Your Town.wav" WAVE TRACK 01 AUDIO TITLE "Your Town" PERFORMER "Deacon Blue" INDEX 01 00:00:00 TRACK 02 AUDIO TITLE "Almost Beautiful" PERFORMER "Deacon Blue" INDEX 00 04:17:45FILE "02 Almost Beautiful.wav" WAVE INDEX 01 00:00:00 TRACK 03 AUDIO TITLE "I've Been Making Such A Fool..." PERFORMER "Deacon Blue" INDEX 00 04:15:07FILE "03 I've Been Making Such A Fool....wav" WAVE INDEX 01 00:00:00
[CUETools log; Date: 04.08.2012 0:03:51; Version: 2.1.4][CTDB TOCID: 72J8FDbWVXqVcsl8avhS1b7kkkU-] found.Track | CTDB Status 1 | (1/1) Accurately ripped 2 | (1/1) Accurately ripped 3 | (1/1) Accurately ripped[AccurateRip ID: 0001a57e-00056611-1a029503] found.Track [ CRC | V2 ] Status 01 [0b6e8f96|b5602133] (10+00/10) Accurately ripped 02 [76cc3b0c|1f04c92a] (10+00/10) Accurately ripped 03 [59cd451f|afbd0d60] (10+00/10) Accurately ripped

Track Peak [ CRC32 ] [W/O NULL] [ LOG ] -- 100,0 [4FE178A0] [CEC2A113] 01 100,0 [AB3785D5] [432920D5] CRC32 02 99,5 [6569B04C] [07E5B041] CRC32 03 99,9 [5D11FD0A] [27801088] CRC32



Трекер:  [ 09-Авг-2012 17:39 ]

  

Скачать .torrent

Размер .torrent файла 37 KB


Размер: 116 MB
Хэш (hash) релиза: b3d7bad91d184e34ebdccd83f9cfe1a5df64da09

Еще никто не оставлял запись к записи скачать торрент Deacon Blue - Your Town . Будь первым!

!Обратная связь