Скачать через торрент музыку Red Sand - Behind The Mask - 2012, FLAC бесплатно без регистрации torrent

Если у вас наблюдаются проблемы со скриншотами, переходом по ссылками, скачиванием торрентов - проблемы в блокировщике рекламы AdBlock. #хорошегоДня!


Статистика раздачи
Размер:  335 MB   |    Зарегистрирован:  5 лет 3 месяца   |    .torrent скачан:  10 раз   |   
Раздают:  1  
   
Загрузка...
 
Автор Сообщение

Galfimbul

avatar Galfimbul


Red Sand / Behind The Mask

Жанр: Neo Prog
Страна-производитель диска: Canada
Год издания: 2012
Издатель (лейбл): Red Sand Music
Номер по каталогу: spbn 005
Страна: Canada
Аудиокодек: FLAC (*.flac)
Тип рипа: image+.cue
Битрейт аудио: lossless
Продолжительность: 44:37
Источник (релизер): Мой рип оригинального CD
Наличие сканов в содержимом раздачи: да
Треклист:
01. Zero Of War (8:33)
02. Behind The Mask (11:27)
03. Reflections (1:29)
04. Memory Of Past (5:00)
05. Mask Of Liberty (9:50)
06. Veil Of Insanity (4:24)
7. - (Hidden Track) (0:45)
Exact Audio Copy V1.0 beta 3 from 29. August 2011

Отчёт EAC об извлечении, выполненном 8. августа 2012, 21:54

Red Sand / Behind the Mask

Дисковод: HL-DT-STDVDRAM GSA-H42L Adapter: 0 ID: 0

Режим чтения : ДостоверностьИспользование точного потока : ДаОтключение кэша аудио : ДаИспользование указателей C2 : Нет

Коррекция смещения при чтении : 667Способность читать области Lead-in и Lead-out : НетЗаполнение пропущенных сэмплов тишиной : ДаУдаление блоков с тишиной в начале и конце : НетПри вычислениях CRC использовались нулевые сэмплы : ДаИнтерфейс : Встроенный Win32-интерфейс для Win NT/2000

Выходной формат : Пользовательский кодировщикВыбранный битрейт : 896 kBit/sКачество : ВысокийДобавление ID3-тега : НетУтилита сжатия : C:\Program Files\Exact Audio Copy\Flac\flac.exeДополнительные параметры : -V -8 -T "Date=%year%" -T "Genre=%genre%" %source%

TOC извлечённого CD

Трек | Старт | Длительность | Начальный сектор | Конечный сектор --------------------------------------------------------------------- 1 | 0:00.00 | 8:33.37 | 0 | 38511 2 | 8:33.37 | 11:27.16 | 38512 | 90052 3 | 20:00.53 | 1:29.60 | 90053 | 96787 4 | 21:30.38 | 5:00.45 | 96788 | 119332 5 | 26:31.08 | 9:50.28 | 119333 | 163610 6 | 36:21.36 | 4:24.02 | 163611 | 183412 7 | 40:45.38 | 3:46.05 | 183413 | 200367

Характеристики диапазона извлечения и сообщения об ошибках

Выбранный диапазон

Имя файла D:\AND\CD Images\New\Red Sand - 2012 - Behind the Mask\Red Sand - Behind the Mask.wav

Пиковый уровень 98.0 % Скорость извлечения 5.3 X Качество диапазона 100.0 % CRC теста BE333AAB CRC копии BE333AAB Копирование... OK

Ошибок не произошло

AccurateRip: сводка

Трек 1 : извлечено точно (доверие 2) [603ACEC0] (AR v2)Трек 2 : извлечено точно (доверие 2) [1D7412BA] (AR v2)Трек 3 : извлечено точно (доверие 2) [E8704B8E] (AR v2)Трек 4 : извлечено точно (доверие 2) [15DB8AE0] (AR v2)Трек 5 : извлечено точно (доверие 2) [0F17CC51] (AR v2)Трек 6 : извлечено точно (доверие 2) [7FC254E2] (AR v2)Трек 7 : извлечено точно (доверие 2) [931E506E] (AR v2)

Все треки извлечены точно

Конец отчёта

==== Контрольная сумма отчёта 18FAA975B2FCE44D4ADFF196D10A37C05D79810B2DB88B3F541B38731D068E35 ====
REM GENRE "Progressive Rock"REM DATE 2012REM DISCID 510A6F07REM COMMENT "ExactAudioCopy v1.0b3"PERFORMER "Red Sand"TITLE "Behind the Mask"FILE "Red Sand - Behind the Mask.flac" WAVE TRACK 01 AUDIO TITLE "Zero of war" PERFORMER "Red Sand" INDEX 01 00:00:00 TRACK 02 AUDIO TITLE "Behind the mask" PERFORMER "Red Sand" INDEX 00 08:31:37 INDEX 01 08:33:37 TRACK 03 AUDIO TITLE "Reflection" PERFORMER "Red Sand" INDEX 00 19:58:53 INDEX 01 20:00:53 TRACK 04 AUDIO TITLE "Memory of past" PERFORMER "Red Sand" INDEX 00 21:28:38 INDEX 01 21:30:38 TRACK 05 AUDIO TITLE "Mask of liberty" PERFORMER "Red Sand" INDEX 00 26:29:08 INDEX 01 26:31:08 TRACK 06 AUDIO TITLE "Veil of insanity" PERFORMER "Red Sand" INDEX 00 36:19:36 INDEX 01 36:21:36 TRACK 07 AUDIO TITLE "_" PERFORMER "Red Sand" INDEX 00 40:43:38 INDEX 01 40:45:38
Пятый студийный альбом нео-проговой группы из Канады.
Одна фраза из биографии на Прогархивах говорит о многом:
Highly recommended if you're into early MARILLION, PENDRAGON, ARENA, CLEPSYDRA or SHADOWLAND.

Полностью поддерживаю.
Официальный сайт:
http://www.redsandmusic.ca/

Страница в Прогархивах:
http://www.progarchives.com/artist.asp?id=1071
Ревью в Прогархивах:
The latest Red Sand album to date issued not long ago named Behind the mask is the best album since Gentry. I mean with this release they really return to the great form they were in that period 2004-2005. This is much better in every aspect then previous 2 albums, not to mention that is miles ahed face Music for sharks. Here not only Caron shines on guitar, but each musician involved brings and deliver best they got. Even is a great record I don't considered their best, I remain to Gentry to be the most acomplished Red Sand album ever. Pieces like Behind the mask are instanly catchy and has that special Red Sand gitar trademarck made in Caron, excellent. The pieces, all of them are more intressting, elaborated, keyboards have again an important role, somehow forgotten on previous work only sporadicaly used, here are excellent. This is first rate neo prog, maybe not original, but well played and with intresting passages. The bass, drums are all over and is clear that they play with pleasure for neo prog music. Another fine Red Sand album that desearves more then 3 stars and less then 4 because 4 was destined for their best work Gentry, so 3.5 it is, a welcome return to form after almost mediocre "Music for Sharks".

Оценка альбома в Прогархивах на 08.08.12.
3.57 | 27 ratings | 1 reviews | 42% 5 stars
Excellent addition to any prog rock music collection


- Steff (Stéphane Dorval) / Vocals
- Simon Caron / Guitars & Keyboards
- Pennsylia Caron / Piano & Keyboards
- Mathieu Rosselin / Bass
- Danny Robertson / Drums


Трекер:  [ 09-Авг-2012 17:38 ]

  

Скачать .torrent

Размер .torrent файла 14 KB


Размер: 335 MB
Хэш (hash) релиза: 094e5a079953948a3e40c2f5bfc49b71e9872919

Еще никто не оставлял запись к записи скачать торрент Red Sand - Behind The Mask - 2012, FLAC . Будь первым!

!Обратная связь