Скачать через торрент музыку Roxx - Outlaws, Fools, and Thieves - 2004, APE бесплатно без регистрации torrent

Если у вас наблюдаются проблемы со скриншотами, переходом по ссылками, скачиванием торрентов - проблемы в блокировщике рекламы AdBlock. #хорошегоДня!


Статистика раздачи
Размер:  322 MB   |    Зарегистрирован:  5 лет   |    .torrent скачан:  9 раз   |   
Раздают:  1  
   
Загрузка...
 
Автор Сообщение

Galfimbul

avatar Galfimbul


Roxx - Outlaws, Fools, and Thieves

Жанр: Glam/Hard Rock
Страна-производитель диска: USA
Год издания: 2004
Издатель (лейбл): Perris Records
Номер по каталогу: PER 01382
Страна: USA
Аудиокодек: APE (*.ape)
Тип рипа: image+.cue
Битрейт аудио: lossless
Продолжительность: 43:53
Источник (релизер): original CD
Наличие сканов в содержимом раздачи: да

Треклист:

01. What's a Boy to do?! [0:03:38.24]
02. Tell Me [0:03:33.35]
03. Rockin' Horse [0:03:12.31]
04. Towing The Line [0:03:25.50]
05. Give Up Your Heart [0:05:16.00]
06. Pint of Blues [0:03:16.40]
07. Mr. Mean [0:04:16.54]
08. In The Groove [0:03:18.63]
09. Shy Away [0:03:57.08]
10. Ball & Chain [0:03:11.16]
11. Turns to Gold [0:03:17.36]
12. In The Groove-Remix [0:03:28.65]
Exact Audio Copy V1.0 beta 1 from 15. November 2010

Отчёт EAC об извлечении, выполненном 8. августа 2012, 11:19

Roxx / Outlaws, Fools, & Thieves

Дисковод: Optiarc DVD RW AD-7261S Adapter: 1 ID: 1

Режим чтения : ДостоверностьИспользование точного потока : ДаОтключение кэша аудио : ДаИспользование указателей C2 : Нет

Коррекция смещения при чтении : 48Способность читать области Lead-in и Lead-out : НетЗаполнение пропущенных сэмплов тишиной : ДаУдаление блоков с тишиной в начале и конце : НетПри вычислениях CRC использовались нулевые сэмплы : ДаИнтерфейс : Встроенный Win32-интерфейс для Win NT/2000

Выходной формат : Monkey's Audio (без потерь)Выбранный битрейт : Normal Lossless CompressionКачество : ВысокийДобавление ID3-тега : ДаУтилита сжатия : C:\Program Files\Monkey's Audio\MAC.exe

TOC извлечённого CD

Трек | Старт | Длительность | Начальный сектор | Конечный сектор --------------------------------------------------------------------- 1 | 0:00.00 | 3:38.24 | 0 | 16373 2 | 3:38.24 | 3:33.35 | 16374 | 32383 3 | 7:11.59 | 3:12.31 | 32384 | 46814 4 | 10:24.15 | 3:25.50 | 46815 | 62239 5 | 13:49.65 | 5:16.00 | 62240 | 85939 6 | 19:05.65 | 3:16.40 | 85940 | 100679 7 | 22:22.30 | 4:16.54 | 100680 | 119933 8 | 26:39.09 | 3:18.63 | 119934 | 134846 9 | 29:57.72 | 3:57.08 | 134847 | 152629 10 | 33:55.05 | 3:11.16 | 152630 | 166970 11 | 37:06.21 | 3:17.36 | 166971 | 181781 12 | 40:23.57 | 3:28.65 | 181782 | 197446

Характеристики диапазона извлечения и сообщения об ошибках

Выбранный диапазон

Имя файла D:\Downloads\Roxx - Outlaws, Fools, & Thieves 2004.wav

Пиковый уровень 100.0 % Скорость извлечения 0.2 X Качество диапазона 99.9 % CRC теста F25355E3 CRC копии F25355E3 Копирование... OK

Ошибок не произошло

Конец отчёта
1 bonus track 12 studio tracks.
The groups sound is a mixture 80s party glam bands such as Poison, and Motley Crue.
Vocalist Joey D. worked with SKID ROW for 2 months before Sebastian Bach.
ROXX always delivers with a ripping track like "Tell Me" or "Mr. Mean" then takes it a step down with a Bon Jovi-Skid Row style ballad called "Give Up Your Heart".

Press:
Fans of 80s party rock might get a kick out of Roxx. - www.roughedge.com
A great good fun glam/sleaze rock band - www.melodicrock.com
Joey D'Angeli - vocals
Franky Novello - guitar
Marko Soccoli - drums
Mark Scovran - bass
Randy Ferri - guitar


Трекер:  [ 09-Авг-2012 17:38 ]

  

Скачать .torrent

Размер .torrent файла 13 KB


Размер: 322 MB
Хэш (hash) релиза: 441ffbd3b699b37efd8a8bf1bda66a93616b8648

Еще никто не оставлял запись к записи скачать торрент Roxx - Outlaws, Fools, and Thieves - 2004, APE . Будь первым!

!Обратная связь