Скачать через торрент музыку Van Morrison - Blowin Your Mind бесплатно без регистрации torrent

Если у вас наблюдаются проблемы со скриншотами, переходом по ссылками, скачиванием торрентов - проблемы в блокировщике рекламы AdBlock. #хорошегоДня!


Статистика раздачи
Размер:  315 MB   |    Зарегистрирован:  5 лет   |    .torrent скачан:  20 раз   |   
Раздают:  1  
   
Загрузка...
 
Автор Сообщение

Galfimbul

avatar Galfimbul


Van Morrison / Blowin' Your Mind (Sony MasterSound Gold)

Жанр: Pop-Rock
Страна-производитель диска: США
Год издания: 1995
Издатель (лейбл): Epic/Legacy
Номер по каталогу: ZK 66220
Страна: Северная Ирландия
Аудиокодек: FLAC (*.flac)
Тип рипа: image+.cue
Битрейт аудио: lossless
Продолжительность: 00:52:15
Источник (релизер): ed2k
Наличие сканов в содержимом раздачи: нет
Треклист:
01. Brown Eyed Girl
02. He Ain't Give You None
03. T.B. Sheets
04. Spanish Rose
05. Goodbye Baby (Baby Goodbye)
06. Ro Ro Rosey
07. Who Drove The Red Sports Car
08. Midnight Special
09. Spanish Rose [Alternate Take]
10. Ro Ro Rosey [alternate take]
11. Goodbye Baby (Baby Goodbye) [alternate take]
12. Who Drove The Red Sports Car [alternate take]
13. Midnight Special [alternate take]
EAC extraction logfile from 7. April 2005, 9:32 for CDVan Morrison / Blowin' Your Mind (Gold Disk)

Used drive : PLEXTOR CD-R PREMIUM Adapter: 1 ID: 0Read mode : Secure with NO C2, accurate stream, disable cacheCombined read/write offset correction : 0Overread into Lead-In and Lead-Out : No

Used output format : Internal WAV Routines 44.100 Hz; 16 Bit; Stereo

Other options : Fill up missing offset samples with silence : Yes Delete leading and trailing silent blocks : No Installed external ASPI interface

Range status and errorsSelected range Filename H:\CDImage.wav

Peak level 100.0 % Range quality 100.0 % CRC 7BF64584 Copy OK

No errors occured

End of status report
[Verification date: 9/13/2009 11:04:38 AM][Disc ID: 001b9de4-010e0a43-ce0c420d]Offset applied: 30Track [ CRC ] Status 01 [e55d3789] (04/04) Accurately ripped 02 [2f2f3aae] (04/04) Accurately ripped 03 [6faa6eef] (04/04) Accurately ripped 04 [7fe608dd] (04/04) Accurately ripped 05 [17a403ee] (04/04) Accurately ripped 06 [935ff2f7] (04/04) Accurately ripped 07 [8522a3e5] (04/04) Accurately ripped 08 [16210a5a] (04/04) Accurately ripped 09 [564f7d62] (04/04) Accurately ripped 10 [b19b0279] (04/04) Accurately ripped 11 [b98dcd94] (04/04) Accurately ripped 12 [4dcfa9c2] (04/04) Accurately ripped 13 [188506fe] (04/04) Accurately ripped

Track [ CRC32 ] [W/O NULL] [ LOG ] -- [461C73EB] [829D532B] [7BF64584] 01 [2B93F23C] [8D0DCD58] 02 [5BCA5E9E] [29276D9D] 03 [3F8DBE43] [D0F79161] 04 [DA67A2DC] [FB6B73B3] 05 [8E292B10] [12CD89C8] 06 [228C6873] [7D02CA1B] 07 [3B89CCE1] [FEFC77D7] 08 [AEAE11AE] [65BEE253] 09 [9C47308F] [E0901119] 10 [7F1DAAF9] [F2C77463] 11 [82D00236] [39484806] 12 [1037A11E] [57171EC2] 13 [789C179B] [0057DD59]
Доп. информация: Sony MasterSound Gold Disc

Трекер:  [ 09-Авг-2012 17:38 ]

  

Скачать .torrent

Размер .torrent файла 13 KB


Размер: 315 MB
Хэш (hash) релиза: 28e48eaceb175ea173719fc4c0f3c3ec90acf79c

Еще никто не оставлял запись к записи скачать торрент Van Morrison - Blowin Your Mind . Будь первым!

!Обратная связь