Скачать через торрент музыку Levellers - What A Beautiful Day EP - 1997, APE бесплатно без регистрации torrent

Если у вас наблюдаются проблемы со скриншотами, переходом по ссылками, скачиванием торрентов - проблемы в блокировщике рекламы AdBlock. #хорошегоДня!


Статистика раздачи
Размер:  97 MB   |    Зарегистрирован:  5 лет 2 месяца   |    .torrent скачан:  6 раз   |   
Раздают:  1  
   
Загрузка...
 
Автор Сообщение

Galfimbul

avatar Galfimbul


Levellers / What A Beautiful Day EP

Жанр: Alternative/Folk Rock
Страна-производитель диска: UK
Год издания: 1997
Издатель (лейбл): China Records
Номер по каталогу: WOKCD2088
Страна: UK
Аудиокодек: APE (*.ape)
Тип рипа: image+.cue
Битрейт аудио: lossless
Продолжительность: 00:13:35
Источник (релизер): avax
Наличие сканов в содержимом раздачи: нет
Треклист:
1 What A Beautiful Day 4:03
2 Bar Room Jury 3:47
3 All Your Dreams 5:44
Exact Audio Copy V1.0 beta 2 from 29. April 2011

EAC extraction logfile from 29. January 2012, 11:24

Levellers / What A Beautiful Day

Used drive : HL-DT-STDVDRAM GSA-H12L Adapter: 0 ID: 0

Read mode : SecureUtilize accurate stream : YesDefeat audio cache : YesMake use of C2 pointers : No

Read offset correction : 667Overread into Lead-In and Lead-Out : NoFill up missing offset samples with silence : YesDelete leading and trailing silent blocks : NoNull samples used in CRC calculations : YesUsed interface : Native Win32 interface for Win NT & 2000

Used output format : User Defined EncoderSelected bitrate : 896 kBit/sQuality : HighAdd ID3 tag : NoCommand line compressor : C:\Program Files\FLAC\flac.exeAdditional command line options : -5 -T "Artist=%artist%" -T "Title=%title%" -T "Album=%albumtitle%" -T "Date=%year%" -T "Tracknumber=%tracknr%" -T "Genre=%genre%" %source% -o %dest%

TOC of the extracted CD

Track | Start | Length | Start sector | End sector --------------------------------------------------------- 1 | 0:00.00 | 4:03.15 | 0 | 18239 2 | 4:03.15 | 3:47.02 | 18240 | 35266 3 | 7:50.17 | 5:44.58 | 35267 | 61124

Range status and errors

Selected range

Filename I:\=== VINYL RIPS ===\=== EAC===\X FRESH RIP\Levellers - What A Beautiful Day.wav

Peak level 98.0 % Extraction speed 5.8 X Range quality 100.0 % Test CRC 69C632BA Copy CRC 69C632BA Copy OK

No errors occurred

AccurateRip summary

Track 1 accurately ripped (confidence 4) [63FB3945] (AR v1)Track 2 accurately ripped (confidence 2) [A78A10B2] (AR v2)Track 3 accurately ripped (confidence 2) [1C94D93D] (AR v2)

All tracks accurately ripped

End of status report

==== Log checksum 020B1F3AF6483D95A5F1AAB85CE1E676C9DCB6FCB5233919955CC3F9C022A977 ====
AUDIOCHECKER v2.0 beta (build 457) - by Dester - <a href="mailto:opdester@freemail.hu" class="postLink">opdester@freemail.hu</a>~~~~~~~~~~~~~~~~~~~~~~~~~~~~~~~~~~-=== DO NOT EDIT THIS FILE! ===-

Path: ...\Levellers - What A Beautiful Day [China Records WOKCD2088] {UK 1997}

1 -=- Levellers - What A Beautiful Day.wav -=- CDDA (100%)

218965460


Трекер:  [ 09-Авг-2012 17:38 ]

  

Скачать .torrent

Размер .torrent файла 16 KB


Размер: 97 MB
Хэш (hash) релиза: bb9d217772b2aa9308a72a2a15ddb98ed167e1fc

Еще никто не оставлял запись к записи скачать торрент Levellers - What A Beautiful Day EP - 1997, APE . Будь первым!

!Обратная связь