Скачать через торрент музыку Dire Straits - The Bug бесплатно без регистрации torrent

Если у вас наблюдаются проблемы со скриншотами, переходом по ссылками, скачиванием торрентов - проблемы в блокировщике рекламы AdBlock. #хорошегоДня!


Статистика раздачи
Размер:  108 MB   |    Зарегистрирован:  5 лет 2 месяца   |    .torrent скачан:  21 раз   |   
Раздают:  1  
   
Загрузка...
 
Автор Сообщение

Galfimbul

avatar Galfimbul


Dire Straits / The Bug (866 967-2)

Жанр: Rock
Страна-производитель диска: не знаю
Год издания: 1992
Издатель (лейбл): Vertigo
Номер по каталогу: 866 967-2
Страна: UK
Аудиокодек: FLAC (*.flac)
Тип рипа: tracks+.cue
Битрейт аудио: lossless
Продолжительность: 00:17:10
Источник (релизер): собственный рип
Наличие сканов в содержимом раздачи: да
Треклист:
01. The Bug 4:17
02. Twisting by the Pool 3:33
03. Expresso Love 5:05
04. Walk of Life 4:13
dBpoweramp Release 14.2 Digital Audio Extraction Log from 8 августа 2012 г. 12:57

Drive & Settings----------------

Ripping with drive 'J: [PIONEER - DVD-RW DVR-111 ]', Drive offset: 48, Overread Lead-in/out: NoAccurateRip: Active, Using C2: Yes, Cache: None, FUA Cache Invalidate: NoPass 1 Drive Speed: Max, Pass 2 Drive Speed: MaxUltra:: Vary Drive Speed: No, Min Passes: 3, Max Passes: 6, Finish After Clean Passes: 2Bad Sector Re-rip:: Drive Speed: 40, Maximum Re-reads: 34

Encoder: FLAC -compression-level-5 -verify

Extraction Log--------------

Track 1: Ripped LBA 62 to 19390 (4:17) in 1:06. Filename: C:\Users\Роман\Music\Dire Straits\The Bug\01 Dire Straits - The Bug.flac Secure [Pass 1, Ultra 1 to 3] CRC32: 856D1114 AccurateRip CRC: 8496CE25 (CRCv2) [DiscID: 004-0002e81c-000babfa-30040704-1]

Track 2: Ripped LBA 19390 to 35405 (3:33) in 0:44. Filename: C:\Users\Роман\Music\Dire Straits\The Bug\02 Dire Straits - Twisting by the Pool.flac Secure [Pass 1, Ultra 1 to 3] CRC32: A1F5A5EF AccurateRip CRC: D51A98C7 (CRCv2) [DiscID: 004-0002e81c-000babfa-30040704-2]

Track 3: Ripped LBA 35405 to 58310 (5:05) in 0:58. Filename: C:\Users\Роман\Music\Dire Straits\The Bug\03 Dire Straits - Expresso Love.flac Secure [Pass 1, Ultra 1 to 3] CRC32: 2DFCC481 AccurateRip CRC: F725F845 (CRCv2) [DiscID: 004-0002e81c-000babfa-30040704-3]

Track 4: Ripped LBA 58310 to 77325 (4:13) in 0:44. Filename: C:\Users\Роман\Music\Dire Straits\The Bug\04 Dire Straits - Walk of Life.flac Secure [Pass 1, Ultra 1 to 3] CRC32: 375373E5 AccurateRip CRC: 6D7EB22A (CRCv2) [DiscID: 004-0002e81c-000babfa-30040704-4]

--------------

4 Tracks Ripped Securely
REM GENRE RockREM DATE 1991REM DISCID 30040704REM COMMENT "ExactAudioCopy v1.0b3"PERFORMER "Dire Straits"TITLE "The Bug"FILE "01 Dire Straits - The Bug.wav" WAVE TRACK 01 AUDIO TITLE "The Bug" PERFORMER "Dire Straits" PREGAP 00:00:62 INDEX 01 00:00:00 TRACK 02 AUDIO TITLE "Twisting by the Pool" PERFORMER "Dire Straits" INDEX 00 04:13:73FILE "02 Dire Straits - Twisting by the Pool.wav" WAVE INDEX 01 00:00:00 TRACK 03 AUDIO TITLE "Expresso Love" PERFORMER "Dire Straits" INDEX 00 03:29:72FILE "03 Dire Straits - Expresso Love.wav" WAVE INDEX 01 00:00:00 TRACK 04 AUDIO TITLE "Walk of Life" PERFORMER "Dire Straits" INDEX 00 05:01:20FILE "04 Dire Straits - Walk of Life.wav" WAVE INDEX 01 00:00:00


Трекер:  [ 09-Авг-2012 17:38 ]

  

Скачать .torrent

Размер .torrent файла 17 KB


Размер: 108 MB
Хэш (hash) релиза: e3d87c028dfa08384e1f3073a2e2214c77e368d1

Еще никто не оставлял запись к записи скачать торрент Dire Straits - The Bug . Будь первым!

!Обратная связь