Скачать через торрент музыку Dire Straits - On Every Street бесплатно без регистрации torrent

Если у вас наблюдаются проблемы со скриншотами, переходом по ссылками, скачиванием торрентов - проблемы в блокировщике рекламы AdBlock. #хорошегоДня!


Статистика раздачи
Размер:  126 MB   |    Зарегистрирован:  5 лет 3 месяца   |    .torrent скачан:  33 раза   |   
Раздают:  1  
   
Загрузка...
 
Автор Сообщение

Galfimbul

avatar Galfimbul


Dire Straits / On Every Street (PHIL 1)

Жанр: Rock
Страна-производитель диска: UK
Год издания: 1991
Издатель (лейбл): Vertigo
Номер по каталогу: PHIL 1
Страна: UK
Аудиокодек: FLAC (*.flac)
Тип рипа: tracks+.cue
Битрейт аудио: lossless
Продолжительность: 00:19:54
Источник (релизер): собственный рип
Наличие сканов в содержимом раздачи: да
Треклист:
01. heavy fuel
02. millionaire blues
03. calling elvis (exclusive bob clearmountain re-mix)
04. money for nothing
dBpoweramp Release 14.2 Digital Audio Extraction Log from 8 августа 2012 г. 02:12

Drive & Settings----------------

Ripping with drive 'J: [PIONEER - DVD-RW DVR-111 ]', Drive offset: 48, Overread Lead-in/out: NoAccurateRip: Active, Using C2: Yes, Cache: None, FUA Cache Invalidate: NoPass 1 Drive Speed: Max, Pass 2 Drive Speed: MaxUltra:: Vary Drive Speed: No, Min Passes: 3, Max Passes: 6, Finish After Clean Passes: 2Bad Sector Re-rip:: Drive Speed: 40, Maximum Re-reads: 34

Encoder: FLAC -compression-level-5 -verify

Extraction Log--------------

Track 1: Ripped LBA 0 to 22237 (4:56) in 0:23. Filename: C:\Users\Роман\Music\Dire Straits\On Every Street\01 Dire Straits - Heavy Fuel.flac AccurateRip: Accurate (confidence 5) [Pass 1] CRC32: 3CDF41C9 AccurateRip CRC: 99A7B321 [DiscID: 004-00036f4b-000dc93e-3104ab04-1] AccurateRip Verified Confidence 5 [CRCv1 99a7b321]

Track 2: Ripped LBA 22237 to 42062 (4:24) in 0:13. Filename: C:\Users\Роман\Music\Dire Straits\On Every Street\02 Dire Straits - Millionaire Blues.flac AccurateRip: Accurate (confidence 5) [Pass 1] CRC32: 8E36C8AF AccurateRip CRC: 3C5AC86B [DiscID: 004-00036f4b-000dc93e-3104ab04-2] AccurateRip Verified Confidence 5 [CRCv1 3c5ac86b]

Track 3: Ripped LBA 42062 to 71175 (6:28) in 0:17. Filename: C:\Users\Роман\Music\Dire Straits\On Every Street\03 Dire Straits - Calling Elvis.flac AccurateRip: Accurate (confidence 5) [Pass 1] CRC32: A198897E AccurateRip CRC: DDEC4B27 [DiscID: 004-00036f4b-000dc93e-3104ab04-3] AccurateRip Verified Confidence 5 [CRCv1 ddec4b27]

Track 4: Ripped LBA 71175 to 89625 (4:06) in 0:10. Filename: C:\Users\Роман\Music\Dire Straits\On Every Street\04 Dire Straits - Money for Nothing.flac AccurateRip: Accurate (confidence 5) [Pass 1] CRC32: 74728FA8 AccurateRip CRC: EDC1F033 [DiscID: 004-00036f4b-000dc93e-3104ab04-4] AccurateRip Verified Confidence 5 [CRCv1 edc1f033]

--------------

4 Tracks Ripped Accurately
REM GENRE RockREM DATE 1991REM DISCID 3104AB04REM COMMENT "ExactAudioCopy v1.0b3"PERFORMER "Dire Straits"TITLE "On Every Street - Limited Edition"FILE "01 Dire Straits - Heavy Fuel.wav" WAVE TRACK 01 AUDIO TITLE "Heavy Fuel" PERFORMER "Dire Straits" INDEX 01 00:00:00 TRACK 02 AUDIO TITLE "Millionaire Blues" PERFORMER "Dire Straits" INDEX 00 04:54:25FILE "02 Dire Straits - Millionaire Blues.wav" WAVE INDEX 01 00:00:00 TRACK 03 AUDIO TITLE "Calling Elvis (Bob Clearmountain re-mix)" PERFORMER "Dire Straits" INDEX 00 04:23:25FILE "03 Dire Straits - Calling Elvis (Bob Clearmountain re-mix).wav" WAVE INDEX 01 00:00:00 TRACK 04 AUDIO TITLE "Money For Nothing" PERFORMER "Dire Straits" INDEX 00 06:27:13FILE "04 Dire Straits - Money For Nothing.wav" WAVE INDEX 01 00:00:00


Трекер:  [ 09-Авг-2012 17:38 ]

  

Скачать .torrent

Размер .torrent файла 21 KB


Размер: 126 MB
Хэш (hash) релиза: 9cf3611282973369b002920227da34aec9fb8b50

Торренты, похожие на Dire Straits - On Every Street скачать торрент

Форум Название Автор Размер S L Добавлен
Rосk | Mеtаl | Аltеrnаtivе, Рunk, Indереndеnt (losslеss) ·· (Blues Rock) Dire Straits - On Every Street - 1991, FLAC (image+.cue), lossless Galfimbul 327504721312 MB 0 0 1371718168

11:49

20-Июн-13

Rосk | Mеtаl | Аltеrnаtivе, Рunk, Indереndеnt (losslеss) ·· (Rock/Art-Rock) Dire Straits - On Every Street (US first press) - 1991, FLAC (image+.cue), lossless Galfimbul 455006292434 MB 0 0 1297875596

19:59

16-Фев-11

Rосk | Mеtаl | Аltеrnаtivе, Рunk, Indереndеnt (losslеss) ·· Dire Straits - 1991 - On Every Street [Vertigo 510 160-2] - 1991, APE (image+.cue), lossless Galfimbul 363263057346 MB 0 0 1297876049

20:07

16-Фев-11

Еще никто не оставлял запись к записи скачать торрент Dire Straits - On Every Street . Будь первым!

!Обратная связь