Скачать через торрент Helloween -- The Best - The Rest - The Rare - 1991 бесплатно русская версия torrent активатор

Если у вас наблюдаются проблемы со скриншотами, переходом по ссылками, скачиванием торрентов - проблемы в блокировщике рекламы AdBlock. #хорошегоДня!


Статистика раздачи
Размер:  576 MB   |    Зарегистрирован:  5 лет 2 месяца   |    .torrent скачан:  42 раза   |   
Раздают:  1  
   
Загрузка...
 
Автор Сообщение

Galfimbul

avatar Galfimbul


Helloween / The Best - The Rest - The Rare

Год: 1991
Страна: Germany
Страна-производитель диска: France
Жанр: Power Metal
Тип издания: сборник
Издатель (лейбл): Noise
Номер по каталогу: N 0176-2
Наличие сканов в содержимом раздачи: нет
Продолжительность: 76:55
Тексты: вшиты
Кодек: ALAC
Программа-риповщик : foobar2000 + iTunes
Битрейт: lossless
Треклист:
01. I Want Out
02. Dr. Stein
03. Future World
04. Judas
05. Walls Of Jericho
06. Ride The Sky
07. Halloween
08. Livin' Ain't No Crime
09. Save Us
10. Victim Of Fate
11. Savage
12. Don't Run For Cover
13. Keeper of the Seven Keys
Exact Audio Copy V0.99 prebeta 5 from 4. May 2009Отчёт EAC об извлечении, выполненном 13. июля 2010, 13:22Helloween / The Best - The Rest - The RareДисковод: TOSHIBA DVD-ROM SD-R1202 Adapter: 1 ID: 0Режим чтения : ДостоверностьИспользование точного потока : ДаОтключение кэша аудио : ДаИспользование указателей C2 : НетКоррекция смещения при чтении : -472Способность читать области Lead-in и Lead-out : НетЗаполнение пропущенных сэмплов тишиной : ДаУдаление блоков с тишиной в начале и конце : НетПри вычислениях CRC использовались нулевые сэмплы : ДаИнтерфейс : Встроенный Win32-интерфейс для Win NT/2000Выходной формат : Пользовательский кодировщикВыбранный битрейт : 1024 kBit/sКачество : ВысокийДобавление ID3-тэга : ДаУтилита сжатия : C:\Documents and Settings\Admin\Рабочий стол\wavpack-4.60.1\wavpack.exeTOC извлечённого CDТрек | Старт | Длительность | Начальный сектор | Конечный сектор---------------------------------------------------------------------1 | 0:00.00 | 4:38.48 | 0 | 208972 | 4:38.48 | 5:01.72 | 20898 | 435443 | 9:40.45 | 4:02.03 | 43545 | 616974 | 13:42.48 | 4:39.30 | 61698 | 826525 | 18:22.03 | 0:48.27 | 82653 | 862796 | 19:10.30 | 5:55.10 | 86280 | 1129147 | 25:05.40 | 13:16.58 | 112915 | 1726728 | 38:22.23 | 4:40.27 | 172673 | 1936999 | 43:02.50 | 5:11.28 | 193700 | 21705210 | 48:14.03 | 6:58.15 | 217053 | 24841711 | 55:12.18 | 3:22.15 | 248418 | 26358212 | 58:34.33 | 4:43.32 | 263583 | 28483913 | 63:17.65 | 13:37.63 | 284840 | 346177Характеристики диапазона извлечения и сообщения об ошибкахВыбранный диапазонИмя файла C:\Documents and Settings\Admin\Рабочий стол\Helloween - The Best - The Rest - The Rare.wavПиковый уровень 98.8 %Качество диапазона 100.0 %CRC копии 42AC9162Копирование... OKОшибок не произошлоAccurateRip: сводкаТрек 1 точное извлечение (доверие 2) [E2431639]Трек 2 точное извлечение (доверие 2) [8EF98286]Трек 3 точное извлечение (доверие 2) [479B34AA]Трек 4 точное извлечение (доверие 2) [CC1C55D7]Трек 5 точное извлечение (доверие 2) [039CA2F2]Трек 6 точное извлечение (доверие 2) [360530DC]Трек 7 точность не определена (достоверность 9) [E6562CA0], AccurateRip вернул [B08D7392]Трек 8 точное извлечение (доверие 2) [4B7BE909]Трек 9 точное извлечение (доверие 2) [3E6E50F1]Трек 10 точное извлечение (доверие 2) [F2A3EEE0]Трек 11 точное извлечение (доверие 2) [B7791D53]Трек 12 точное извлечение (доверие 2) [047DD235]Трек 13 точное извлечение (доверие 2) [3F7EA616]12 трек(и) скопированы точно1 трек(и) не удалось проверить на точностьНекоторые треки не прошли проверку на точностьКонец отчёта
AUDIOCHECKER v2.0 beta (build 457) - by Dester - <a href="mailto:opdester@freemail.hu" class="postLink">opdester@freemail.hu</a>~~~~~~~~~~~~~~~~~~~~~~~~~~~~~~~~~~-=== DO NOT EDIT THIS FILE! ===-

Path: ...\Temp

1 -=- Helloween - The Best - The Rest - The Rare.wav -=- CDDA (100%)

69994820


Трекер:  [ 10-Авг-2012 18:39 ]

  

Скачать .torrent

Размер .torrent файла 12 KB


Размер: 576 MB
Хэш (hash) релиза: 6a17d5500231996c1f20b940afde4f04b31eca6d

Еще никто не оставлял запись к записи скачать торрент Helloween -- The Best - The Rest - The Rare - 1991 . Будь первым!

!Обратная связь