Скачать через торрент музыку Queens of the Stone Age бесплатно без регистрации torrent

Если у вас наблюдаются проблемы со скриншотами, переходом по ссылками, скачиванием торрентов - проблемы в блокировщике рекламы AdBlock. #хорошегоДня!


Статистика раздачи
Размер:  3.98 GB   |    Зарегистрирован:  5 лет 3 месяца   |    .torrent скачан:  21 раз   |   
Раздают:  1  
   
Загрузка...
 
Автор Сообщение

Galfimbul

avatar Galfimbul


Queens of the Stone Age — Discography: 6 releases 1998-2007
Жанр: Hard rock | Производство дисков: США, ЕС, Япония | Аудиокодек: FLAC (*.flac) | Тип рипа: image+.cue
Битрейт аудио: lossless | Общая продолжительность: 7:33:36.680 | Источник рипов: коллекция | Сканы: png
Queens of the Stone Age — Lullabies to Paralyze (Limited Tour Edition)
Год издания: 2005
Издательство: Interscope Records
Номер по каталогу: 0602498844434
Продолжительность: 1:36:33.587

Треклист:
Disc 1 (1:02:44.747)
01. This Lullaby (1:23)
02. Medication (1:54)
03. Everybody Knows That You Are Insane (4:14)
04. Tangled Up In Plaid (4:13)
05. Burn The Witch (3:35)
06. In My Head (4:01)
07. Little Sister (2:54)
08. I Never Came (4:48)
09. Someone's In The Wolf (7:16)
10. The Blood Is Love (6:38)
11. Skin On Skin (3:42)
12. Broken Box (3:02)
13. 'You Got A Killer Scene There, Man...' (4:57)
14. Long Slow Goodbye (6:50)
15. Like A Drug (bonus track) (3:16)
Exact Audio Copy V0.99 prebeta 5 from 4. May 2009

EAC extraction logfile from 10. December 2011, 15:24

QOTSA / Lullabies To Paralyze (0602498844434, disc 1)

Used drive : ASUS DRW-24B1ST Adapter: 3 ID: 0

Read mode : SecureUtilize accurate stream : YesDefeat audio cache : YesMake use of C2 pointers : No

Read offset correction : 6Overread into Lead-In and Lead-Out : NoFill up missing offset samples with silence : YesDelete leading and trailing silent blocks : NoNull samples used in CRC calculations : YesUsed interface : Native Win32 interface for Win NT & 2000

Used output format : User Defined EncoderSelected bitrate : 128 kBit/sQuality : HighAdd ID3 tag : NoCommand line compressor : C:\Program Files (x86)\Exact Audio Copy\Flac\flac.exeAdditional command line options : -V -8 -T "Date=%y" -T "Genre=%m" %s

TOC of the extracted CD

Track | Start | Length | Start sector | End sector --------------------------------------------------------- 1 | 0:00.00 | 1:22.60 | 0 | 6209 2 | 1:22.60 | 1:54.29 | 6210 | 14788 3 | 3:17.14 | 4:14.26 | 14789 | 33864 4 | 7:31.40 | 4:13.37 | 33865 | 52876 5 | 11:45.02 | 3:35.24 | 52877 | 69025 6 | 15:20.26 | 4:01.15 | 69026 | 87115 7 | 19:21.41 | 2:54.02 | 87116 | 100167 8 | 22:15.43 | 4:48.35 | 100168 | 121802 9 | 27:04.03 | 7:15.64 | 121803 | 154491 10 | 34:19.67 | 6:37.43 | 154492 | 184309 11 | 40:57.35 | 3:42.28 | 184310 | 200987 12 | 44:39.63 | 3:02.13 | 200988 | 214650 13 | 47:42.01 | 4:56.47 | 214651 | 236897 14 | 52:38.48 | 6:50.23 | 236898 | 267670 15 | 59:28.71 | 3:15.60 | 267671 | 282355

Range status and errors

Selected range

Filename D:\QOTSA - Lullabies To Paralyze (0602498844434, disc 1).wav

Peak level 100.0 % Range quality 100.0 % Test CRC 5D36F99F Copy CRC 5D36F99F Copy OK

No errors occurred

AccurateRip summary

Track 1 accurately ripped (confidence 200) [B2FAD1D6]Track 2 accurately ripped (confidence 200) [7BF330C3]Track 3 accurately ripped (confidence 200) [79043835]Track 4 accurately ripped (confidence 200) [CED6AEAF]Track 5 accurately ripped (confidence 200) [73966EDC]Track 6 accurately ripped (confidence 200) [CE9E192E]Track 7 accurately ripped (confidence 200) [EE9B4354]Track 8 accurately ripped (confidence 200) [B35B106F]Track 9 accurately ripped (confidence 200) [BA6840DB]Track 10 accurately ripped (confidence 200) [562535FB]Track 11 accurately ripped (confidence 200) [0DCDE3B0]Track 12 accurately ripped (confidence 200) [56C89C3B]Track 13 accurately ripped (confidence 200) [7D7947D6]Track 14 accurately ripped (confidence 200) [D9F3EDC9]Track 15 accurately ripped (confidence 200) [74AA41D8]

All tracks accurately ripped

End of status report
Disc 2 — Live from Earthlink, Atlanta, 19-03-2005 (33:48.840)
01. Lost Art Of Keeping A Secret (3:54)
02. Little Sister (2:56)
03. In My Head (3:56)
04. No One Knows (6:49)
05. Song For The Dead (6:24)
06. Regular John (9:48)
Exact Audio Copy V0.99 prebeta 5 from 4. May 2009

EAC extraction logfile from 10. December 2011, 15:40

QOTSA / Live from Earthlink, Atlanta, 19-03-2005 (0602498844434, disc 2)

Used drive : ASUS DRW-24B1ST Adapter: 3 ID: 0

Read mode : SecureUtilize accurate stream : YesDefeat audio cache : YesMake use of C2 pointers : No

Read offset correction : 6Overread into Lead-In and Lead-Out : NoFill up missing offset samples with silence : YesDelete leading and trailing silent blocks : NoNull samples used in CRC calculations : YesUsed interface : Native Win32 interface for Win NT & 2000

Used output format : User Defined EncoderSelected bitrate : 128 kBit/sQuality : HighAdd ID3 tag : NoCommand line compressor : C:\Program Files (x86)\Exact Audio Copy\Flac\flac.exeAdditional command line options : -V -8 -T "Date=%y" -T "Genre=%m" %s

TOC of the extracted CD

Track | Start | Length | Start sector | End sector --------------------------------------------------------- 1 | 0:00.00 | 3:54.29 | 0 | 17578 2 | 3:54.29 | 2:56.30 | 17579 | 30808 3 | 6:50.59 | 3:56.37 | 30809 | 48545 4 | 10:47.21 | 6:48.74 | 48546 | 79219 5 | 17:36.20 | 6:24.13 | 79220 | 108032 6 | 24:00.33 | 9:48.30 | 108033 | 152162

Range status and errors

Selected range

Filename D:\QOTSA - Live from Earthlink, Atlanta, 19-03-2005 (0602498844434, disc 2).wav

Peak level 100.0 % Range quality 100.0 % Test CRC 4BD1E5BC Copy CRC 4BD1E5BC Copy OK

No errors occurred

AccurateRip summary

Track 1 accurately ripped (confidence 19) [9969EE95]Track 2 accurately ripped (confidence 19) [8FFB4841]Track 3 accurately ripped (confidence 19) [6CA604A0]Track 4 accurately ripped (confidence 19) [6B7CD7A8]Track 5 accurately ripped (confidence 19) [FE19712C]Track 6 accurately ripped (confidence 19) [AB41E54B]

All tracks accurately ripped

End of status report
Queens of the Stone Age — Live in London 2005
Год издания: 2005
Издательство: Interscope Records
Номер по каталогу: B0005719-00
Продолжительность: 1:14:27.240

Треклист:
01. Go With the Flow (2:58)
02. Regular John (5:25)
03. Monsters in the Parasol (4:40)
04. Tangled Up in Plaid (4:00)
05. Little Sister (2:52)
06. You Can't Quit Me, Baby (9:49)
07. I Wanna Make It Wit Chu (4:28)
08. Leg of Lamb (3:35)
09. I Think I Lost My Headache (5:24)
10. Mexicola (5:09)
11. Burn the Witch (3:13)
12. Song for the Dead (7:47)
13. No One Knows (7:47)
14. Long Slow Goodbye (7:20)
Exact Audio Copy V1.0 beta 3 from 29. August 2011

EAC extraction logfile from 9. December 2011, 18:13

QOTSA / Live in London 2005 (B0005719-00)

Used drive : ASUS DRW-24B1ST Adapter: 3 ID: 0

Read mode : SecureUtilize accurate stream : YesDefeat audio cache : YesMake use of C2 pointers : No

Read offset correction : 6Overread into Lead-In and Lead-Out : NoFill up missing offset samples with silence : YesDelete leading and trailing silent blocks : NoNull samples used in CRC calculations : YesUsed interface : Native Win32 interface for Win NT & 2000

Used output format : User Defined EncoderSelected bitrate : 128 kBit/sQuality : HighAdd ID3 tag : NoCommand line compressor : C:\Program Files (x86)\Exact Audio Copy\Flac\flac.exeAdditional command line options : -V -8 -T "Date=%year%" -T "Genre=%genre%" %source%

TOC of the extracted CD

Track | Start | Length | Start sector | End sector --------------------------------------------------------- 1 | 0:00.00 | 2:58.36 | 0 | 13385 2 | 2:58.36 | 5:24.47 | 13386 | 37732 3 | 8:23.08 | 4:39.50 | 37733 | 58707 4 | 13:02.58 | 4:00.34 | 58708 | 76741 5 | 17:03.17 | 2:51.45 | 76742 | 89611 6 | 19:54.62 | 9:49.33 | 89612 | 133819 7 | 29:44.20 | 4:27.56 | 133820 | 153900 8 | 34:12.01 | 3:34.45 | 153901 | 169995 9 | 37:46.46 | 5:24.03 | 169996 | 194298 10 | 43:10.49 | 5:09.08 | 194299 | 217481 11 | 48:19.57 | 3:12.70 | 217482 | 231951 12 | 51:32.52 | 7:47.20 | 231952 | 266996 13 | 59:19.72 | 7:47.20 | 266997 | 302041 14 | 67:07.17 | 7:20.01 | 302042 | 335042

Range status and errors

Selected range

Filename D:\QOTSA - Live in London 2005 (B0005719-00).wav

Peak level 100.0 % Extraction speed 6.7 X Range quality 100.0 % Test CRC 6DAF531D Copy CRC 6DAF531D Copy OK

No errors occurred

AccurateRip summary

Track 1 accurately ripped (confidence 17) [CD61E84A] (AR v2)Track 2 accurately ripped (confidence 17) [7D51EA6D] (AR v2)Track 3 accurately ripped (confidence 17) [6BF45716] (AR v2)Track 4 accurately ripped (confidence 17) [FE56713E] (AR v2)Track 5 accurately ripped (confidence 17) [9CFEDD3C] (AR v2)Track 6 accurately ripped (confidence 17) [A202BC4B] (AR v2)Track 7 accurately ripped (confidence 17) [9A5E3B14] (AR v2)Track 8 accurately ripped (confidence 17) [9D3D5ADD] (AR v2)Track 9 accurately ripped (confidence 17) [29472C97] (AR v2)Track 10 accurately ripped (confidence 17) [31452A2B] (AR v2)Track 11 accurately ripped (confidence 17) [D5BB129E] (AR v2)Track 12 accurately ripped (confidence 17) [18680514] (AR v2)Track 13 accurately ripped (confidence 17) [84B897DE] (AR v2)Track 14 accurately ripped (confidence 15) [A022536A] (AR v2)

All tracks accurately ripped

End of status report

---- CUETools DB Plugin V2.1.3

[CTDB TOCID: qTgvMU0VqA6MM.RYdzKc.GhEHWM-] found, Submit result: qTgvMU0VqA6MM.RYdzKc.GhEHWM- has been confirmed[9e1091d3] (69/69) Accurately ripped

==== Log checksum 42BE02D7A787F977A558AA6E15AD548E98C5F3A642AD4C689C4D2C8D2E404460 ====
Queens of the Stone Age — Era Vulgaris
Год издания: 2007
Издательство: Interscope Records
Номер по каталогу: B0009039-02
Продолжительность: 47:28.667
Буклет

Треклист:
01. Turnin' on the Screw (5:20)
02. Sick, Sick, Sick (3:35)
03. I'm Designer (4:04)
04. Into the Hollow (3:42)
05. Misfit Love (5:40)
06. Battery Acid (4:06)
07. Make It Wit Chu (4:50)
08. 3's & 7's (3:34)
09. Suture Up Your Future (4:37)
10. River in the Road (3:20)
11. Run, Pig, Run (4:39)
Exact Audio Copy V1.0 beta 3 from 29. August 2011

EAC extraction logfile from 4. August 2012, 17:43

QOTSA / Era Vulgaris (B0009039-02)

Used drive : HL-DT-STDVD+-RW GT60N Adapter: 0 ID: 1

Read mode : SecureUtilize accurate stream : YesDefeat audio cache : YesMake use of C2 pointers : No

Read offset correction : 103Overread into Lead-In and Lead-Out : NoFill up missing offset samples with silence : YesDelete leading and trailing silent blocks : NoNull samples used in CRC calculations : YesUsed interface : Native Win32 interface for Win NT & 2000

Used output format : User Defined EncoderSelected bitrate : 128 kBit/sQuality : HighAdd ID3 tag : NoCommand line compressor : C:\Program Files (x86)\Exact Audio Copy\Flac\flac.exeAdditional command line options : -V -8 -T "Genre=%genre%" -T "Artist=%artist%" -T "Title=%title%" -T "Album=%albumtitle%" -T "Date=%year%" -T "Tracknumber=%tracknr%" -T "Comment=%comment%" %source%

TOC of the extracted CD

Track | Start | Length | Start sector | End sector --------------------------------------------------------- 1 | 0:00.00 | 5:20.27 | 0 | 24026 2 | 5:20.27 | 3:34.55 | 24027 | 40131 3 | 8:55.07 | 4:04.20 | 40132 | 58451 4 | 12:59.27 | 3:42.25 | 58452 | 75126 5 | 16:41.52 | 5:39.65 | 75127 | 100616 6 | 22:21.42 | 4:06.08 | 100617 | 119074 7 | 26:27.50 | 4:50.37 | 119075 | 140861 8 | 31:18.12 | 3:34.05 | 140862 | 156916 9 | 34:52.17 | 4:37.23 | 156917 | 177714 10 | 39:29.40 | 3:19.70 | 177715 | 192709 11 | 42:49.35 | 4:39.15 | 192710 | 213649

Range status and errors

Selected range

Filename C:\QOTSA - Era Vulgaris (B0009039-02).wav

Peak level 98.7 % Extraction speed 4.6 X Range quality 100.0 % Test CRC A0CE711B Copy CRC A0CE711B Copy OK

No errors occurred

AccurateRip summary

Track 1 not present in databaseTrack 2 not present in databaseTrack 3 not present in databaseTrack 4 not present in databaseTrack 5 not present in databaseTrack 6 not present in databaseTrack 7 not present in databaseTrack 8 not present in databaseTrack 9 not present in databaseTrack 10 not present in databaseTrack 11 not present in database

None of the tracks are present in the AccurateRip database

End of status report

==== Log checksum D834B6596EAA2CEC145C0B8B2BF4432F1B09C0E307F885C0EAACBFEC4462F57C ====
Queens of the Stone Age — Songs for the Deaf
Год издания: 2009
Издательство: Universal Music (Japan)
Номер по каталогу: UICY-91287
Продолжительность: 1:08:36.373

Треклист:
01. You Think I Ain't Worth a Dollar, but I Feel Like a Millionaire (3:13)
02. No One Knows (4:39)
03. First It Giveth (3:18)
04. A Song for the Dead (5:52)
05. The Sky Is Fallin' (6:16)
06. Six Shooter (1:19)
07. Hangin' Tree (3:06)
08. Go with the Flow (3:07)
09. Gonna Leave You (2:50)
10. Do It Again (4:05)
11. God Is in the Radio (6:05)
12. Another Love Song (3:16)
13. A Song for the Deaf (6:43)
14. Mosquito Song (5:38)
15. The Lost Art of Keeping a Secret (Live) (3:38)
16. Everybody's Gonna Be Happy (Non-LP version) (2:36)
17. Gonna Leave You (Spanish version) (2:55)
Exact Audio Copy V0.99 prebeta 5 from 4. May 2009

EAC extraction logfile from 10. December 2011, 0:28

QOTSA / Songs For The Deaf (2008, UICY-91287)

Used drive : ASUS DRW-24B1ST Adapter: 3 ID: 0

Read mode : SecureUtilize accurate stream : YesDefeat audio cache : YesMake use of C2 pointers : No

Read offset correction : 6Overread into Lead-In and Lead-Out : NoFill up missing offset samples with silence : YesDelete leading and trailing silent blocks : NoNull samples used in CRC calculations : YesUsed interface : Native Win32 interface for Win NT & 2000

Used output format : User Defined EncoderSelected bitrate : 128 kBit/sQuality : HighAdd ID3 tag : NoCommand line compressor : C:\Program Files (x86)\Exact Audio Copy\Flac\flac.exeAdditional command line options : -V -8 -T "Date=%y" -T "Genre=%m" %s

TOC of the extracted CD

Track | Start | Length | Start sector | End sector --------------------------------------------------------- 1 | 1:31.47 | 3:12.50 | 6872 | 21321 2 | 4:44.22 | 4:38.50 | 21322 | 42221 3 | 9:22.72 | 3:18.33 | 42222 | 57104 4 | 12:41.30 | 5:52.27 | 57105 | 83531 5 | 18:33.57 | 6:15.68 | 83532 | 111724 6 | 24:49.50 | 1:19.27 | 111725 | 117676 7 | 26:09.02 | 3:06.18 | 117677 | 131644 8 | 29:15.20 | 3:07.10 | 131645 | 145679 9 | 32:22.30 | 2:50.15 | 145680 | 158444 10 | 35:12.45 | 4:04.62 | 158445 | 176806 11 | 39:17.32 | 6:04.73 | 176807 | 204179 12 | 45:22.30 | 3:15.67 | 204180 | 218871 13 | 48:38.22 | 6:42.55 | 218872 | 249076 14 | 55:21.02 | 5:37.73 | 249077 | 274424 15 | 60:59.00 | 3:38.30 | 274425 | 290804 16 | 64:37.30 | 2:35.60 | 290805 | 302489 17 | 67:13.15 | 2:54.60 | 302490 | 315599

Range status and errors

Selected range

Filename Z:\QOTSA - Songs For The Deaf (2008, UICY-91287).wav

Peak level 100.0 % Range quality 99.9 % Test CRC 08ADA402 Copy CRC 08ADA402 Copy OK

No errors occurred

AccurateRip summary

Track 1 cannot be verified as accurate (confidence 3) [35661CCA], AccurateRip returned [E6B2D7EF]Track 2 cannot be verified as accurate (confidence 3) [F2D3BF08], AccurateRip returned [FF1710CB]Track 3 cannot be verified as accurate (confidence 3) [A0256AD0], AccurateRip returned [90E2278E]Track 4 cannot be verified as accurate (confidence 3) [F3988F6E], AccurateRip returned [7DC2D07A]Track 5 cannot be verified as accurate (confidence 3) [A0FC27F2], AccurateRip returned [89E0A8D3]Track 6 cannot be verified as accurate (confidence 3) [E34858D8], AccurateRip returned [9A6CCF46]Track 7 cannot be verified as accurate (confidence 3) [D7E7CF84], AccurateRip returned [2571F605]Track 8 cannot be verified as accurate (confidence 3) [C5F1A1E9], AccurateRip returned [C9544D04]Track 9 cannot be verified as accurate (confidence 3) [84C1740D], AccurateRip returned [6A4B319D]Track 10 cannot be verified as accurate (confidence 3) [54BC347A], AccurateRip returned [B3983AED]Track 11 cannot be verified as accurate (confidence 3) [D5F499FD], AccurateRip returned [D3861DF6]Track 12 cannot be verified as accurate (confidence 3) [0F7F3AE9], AccurateRip returned [D0CE9810]Track 13 cannot be verified as accurate (confidence 3) [E4673B89], AccurateRip returned [90E2B7C5]Track 14 cannot be verified as accurate (confidence 3) [FEF42271], AccurateRip returned [35B97424]Track 15 cannot be verified as accurate (confidence 3) [AA74FE18], AccurateRip returned [9F59A3AD]Track 16 cannot be verified as accurate (confidence 3) [5B542410], AccurateRip returned [3DDF0170]Track 17 cannot be verified as accurate (confidence 3) [F86D4AD3], AccurateRip returned [62D7C573]

No tracks could be verified as accurateYou may have a different pressing from the one(s) in the database

End of status report
Queens of the Stone Age — Queens of the Stone Age
Год издания: 2010
Издательство: Hostess Entertainment (originally Rekords Rekords)
Номер по каталогу: HSE-60058
Продолжительность: 1:00:07.307

Треклист:
01. Regular John (4:38)
02. Avon (3:25)
03. If Only (3:23)
04. Walkin' On The Sidewalks (5:02)
05. You Would Know (4:18)
06. The Bronze (3:45)
07. How To Handle A Rope (A Lesson In The Lariat) (3:31)
08. Mexicola (4:56)
09. Hispanic Impressions (2:47)
10. You Can't Quit Me Baby (6:37)
11. These Aren't The Droids You're Looking For (3:07)
12. Give The Mule What He Wants (3:09)
13. Spiders And Vinegaroons (6:27)
14. I Was A Teenage Hand Model (5:02)
Exact Audio Copy V1.0 beta 3 from 29. August 2011

EAC extraction logfile from 9. December 2011, 18:42

QOTSA / Queens of the Stone Age (2010, HSE-60058)

Used drive : ASUS DRW-24B1ST Adapter: 3 ID: 0

Read mode : SecureUtilize accurate stream : YesDefeat audio cache : YesMake use of C2 pointers : No

Read offset correction : 6Overread into Lead-In and Lead-Out : NoFill up missing offset samples with silence : YesDelete leading and trailing silent blocks : NoNull samples used in CRC calculations : YesUsed interface : Native Win32 interface for Win NT & 2000

Used output format : User Defined EncoderSelected bitrate : 128 kBit/sQuality : HighAdd ID3 tag : NoCommand line compressor : C:\Program Files (x86)\Exact Audio Copy\Flac\flac.exeAdditional command line options : -V -8 -T "Date=%year%" -T "Genre=%genre%" %source%

TOC of the extracted CD

Track | Start | Length | Start sector | End sector --------------------------------------------------------- 1 | 0:00.00 | 4:37.61 | 0 | 20835 2 | 4:37.61 | 3:25.24 | 20836 | 36234 3 | 8:03.10 | 3:22.51 | 36235 | 51435 4 | 11:25.61 | 5:01.67 | 51436 | 74077 5 | 16:27.53 | 4:18.36 | 74078 | 93463 6 | 20:46.14 | 3:45.17 | 93464 | 110355 7 | 24:31.31 | 3:31.29 | 110356 | 126209 8 | 28:02.60 | 4:55.48 | 126210 | 148382 9 | 32:58.33 | 2:46.46 | 148383 | 160878 10 | 35:45.04 | 6:36.56 | 160879 | 190634 11 | 42:21.60 | 3:07.07 | 190635 | 204666 12 | 45:28.67 | 3:09.29 | 204667 | 218870 13 | 48:38.21 | 6:26.55 | 218871 | 247875 14 | 55:05.01 | 5:02.22 | 247876 | 270547

Range status and errors

Selected range

Filename D:\QOTSA - Queens of the Stone Age (2010, HSE-60058).wav

Peak level 98.8 % Extraction speed 6.4 X Range quality 100.0 % Test CRC 00F66763 Copy CRC 00F66763 Copy OK

No errors occurred

AccurateRip summary

Track 1 accurately ripped (confidence 2) [AF14CE94] (AR v1)Track 2 accurately ripped (confidence 2) [92C72727] (AR v1)Track 3 accurately ripped (confidence 2) [98A428EF] (AR v1)Track 4 accurately ripped (confidence 2) [6C37DC78] (AR v1)Track 5 accurately ripped (confidence 2) [1F363AE5] (AR v1)Track 6 accurately ripped (confidence 2) [3633D6F4] (AR v1)Track 7 accurately ripped (confidence 2) [AFD859E1] (AR v1)Track 8 accurately ripped (confidence 2) [1F9F1577] (AR v1)Track 9 accurately ripped (confidence 2) [A98FC92B] (AR v1)Track 10 accurately ripped (confidence 2) [39090E1F] (AR v1)Track 11 accurately ripped (confidence 2) [F9029790] (AR v1)Track 12 accurately ripped (confidence 2) [AA686BA2] (AR v1)Track 13 accurately ripped (confidence 2) [9086DB3C] (AR v1)Track 14 accurately ripped (confidence 2) [1A5A6D60] (AR v1)

All tracks accurately ripped

End of status report

---- CUETools DB Plugin V2.1.3

[CTDB TOCID: T_4wN_64c5mJQpviKB2xdNJuU64-] found, Submit result: T_4wN_64c5mJQpviKB2xdNJuU64- has been confirmed[d990500f] (1/1) Accurately ripped

==== Log checksum B3F746E6016FC5DD71BA309837A081CB4F53F33FCB322CFF003FA5832AEFB0D8 ====
Queens of the Stone Age — Rated R (10th Anniversary Deluxe Edition)
Год издания: 2010
Издательство: Interscope Records
Номер по каталогу: B0014461-02
Продолжительность: 1:46:23.507

Треклист:
Disc 1 (42:13.960)
01. Feel Good Hit of the Summer (2:43)
02. The Lost Art of Keeping a Secret (3:36)
03. Leg of Lamb (2:49)
04. Auto Pilot (4:01)
05. Better Living Through Chemistry (5:49)
06. Monsters in the Parasol (3:28)
07. Quick and to the Pointless (1:43)
08. In the Fade (4:25)
09. Tension Head (2:53)
10. Lightning Song (2:07)
11. I Think I Lost My Headache (8:40)
Exact Audio Copy V1.0 beta 3 from 29. August 2011

EAC extraction logfile from 9. December 2011, 3:23

QOTSA / Rated R Deluxe Edition (B0014461-02, disc 1)

Used drive : ASUS DRW-24B1ST Adapter: 3 ID: 0

Read mode : SecureUtilize accurate stream : YesDefeat audio cache : YesMake use of C2 pointers : No

Read offset correction : 6Overread into Lead-In and Lead-Out : NoFill up missing offset samples with silence : YesDelete leading and trailing silent blocks : NoNull samples used in CRC calculations : YesUsed interface : Native Win32 interface for Win NT & 2000

Used output format : User Defined EncoderSelected bitrate : 128 kBit/sQuality : HighAdd ID3 tag : NoCommand line compressor : C:\Program Files (x86)\Exact Audio Copy\Flac\flac.exeAdditional command line options : -V -8 -T "Date=%year%" -T "Genre=%genre%" %source%

TOC of the extracted CD

Track | Start | Length | Start sector | End sector --------------------------------------------------------- 1 | 0:00.00 | 2:43.20 | 0 | 12244 2 | 2:43.20 | 3:36.01 | 12245 | 28445 3 | 6:19.21 | 2:48.49 | 28446 | 41094 4 | 9:07.70 | 4:00.74 | 41095 | 59168 5 | 13:08.69 | 5:49.15 | 59169 | 85358 6 | 18:58.09 | 3:27.49 | 85359 | 100932 7 | 22:25.58 | 1:42.48 | 100933 | 108630 8 | 24:08.31 | 4:25.26 | 108631 | 128531 9 | 28:33.57 | 2:52.42 | 128532 | 141473 10 | 31:26.24 | 2:07.35 | 141474 | 151033 11 | 33:33.59 | 8:40.13 | 151034 | 190046

Range status and errors

Selected range

Filename D:\QOTSA - Rated R Deluxe Edition (B0014461-02, disc 1).wav

Peak level 100.0 % Extraction speed 5.8 X Range quality 100.0 % Test CRC ED1F6754 Copy CRC ED1F6754 Copy OK

No errors occurred

AccurateRip summary

Track 1 accurately ripped (confidence 15) [86CD8752] (AR v2)Track 2 accurately ripped (confidence 15) [F6554EA7] (AR v2)Track 3 accurately ripped (confidence 15) [279B0AE7] (AR v2)Track 4 accurately ripped (confidence 15) [863B45E9] (AR v2)Track 5 accurately ripped (confidence 15) [78CA434C] (AR v2)Track 6 accurately ripped (confidence 15) [C299A489] (AR v2)Track 7 accurately ripped (confidence 15) [61EFD0CE] (AR v2)Track 8 accurately ripped (confidence 15) [DE3CC395] (AR v2)Track 9 accurately ripped (confidence 15) [AB4AD3C2] (AR v2)Track 10 accurately ripped (confidence 15) [19287C14] (AR v2)Track 11 accurately ripped (confidence 14) [33CA3A8F] (AR v2)

All tracks accurately ripped

End of status report

---- CUETools DB Plugin V2.1.3

[CTDB TOCID: GtPpTQMzh5bHRh0KRjAOocpa9Ag-] found, Submit result: GtPpTQMzh5bHRh0KRjAOocpa9Ag- has been confirmed[fc987843] (40/40) Accurately ripped

==== Log checksum 55594ED5228E6B89B090C0A273756E43D6C6656D1EC440415586AB04833593CC ====
Disc 2 — B-Sides & Live At The Reading Festival 2000 (1:04:09.547)
01. Ode to Clarissa (The B-Sides) (2:41)
02. You're So Vague (The B-Sides) (3:41)
03. Never Say Never (The B-Sides) (4:23)
04. Who'll Be the Next in Line (The B-Sides) (2:30)
05. Born to Hula (The B-Sides) (5:54)
06. Monster in the Parasol [live] (The B-Sides) (3:48)
07. Feel Good Hit of the Summer (Live At The Reading Festival 2000) (3:00)
08. Regular John (Live At The Reading Festival 2000) (5:13)
09. Avon (Live At The Reading Festival 2000) (3:24)
10. Quick and to the Pointless (Live At The Reading Festival 2000) (2:34)
11. Better Living Through Chemistry (Live At The Reading Festival 2000) (5:20)
12. Ode to Clarissa (Live At The Reading Festival 2000) (2:52)
13. The Lost Art of Keeping a Secret (Live At The Reading Festival 2000) (3:33)
14. You Can't Quit Me, Baby (Live At The Reading Festival 2000) (10:37)
15. Millionaire (Live At The Reading Festival 2000) (4:38)
Exact Audio Copy V0.99 prebeta 5 from 4. May 2009

EAC extraction logfile from 9. December 2011, 4:02

QOTSA / Rated R B-Sides & Live At The Reading Festival 2000 (B0014461-02, disc 2)

Used drive : ASUS DRW-24B1ST Adapter: 3 ID: 0

Read mode : SecureUtilize accurate stream : YesDefeat audio cache : YesMake use of C2 pointers : No

Read offset correction : 6Overread into Lead-In and Lead-Out : NoFill up missing offset samples with silence : YesDelete leading and trailing silent blocks : NoNull samples used in CRC calculations : YesUsed interface : Native Win32 interface for Win NT & 2000

Used output format : User Defined EncoderSelected bitrate : 128 kBit/sQuality : HighAdd ID3 tag : NoCommand line compressor : C:\Program Files (x86)\Exact Audio Copy\Flac\flac.exeAdditional command line options : -V -8 -T "Date=%y" -T "Genre=%m" %s

TOC of the extracted CD

Track | Start | Length | Start sector | End sector --------------------------------------------------------- 1 | 0:00.00 | 2:40.60 | 0 | 12059 2 | 2:40.60 | 3:40.64 | 12060 | 28623 3 | 6:21.49 | 4:23.37 | 28624 | 48385 4 | 10:45.11 | 2:30.15 | 48386 | 59650 5 | 13:15.26 | 5:54.32 | 59651 | 86232 6 | 19:09.58 | 3:47.69 | 86233 | 103326 7 | 22:57.52 | 2:59.59 | 103327 | 116810 8 | 25:57.36 | 5:12.58 | 116811 | 140268 9 | 31:10.19 | 3:23.65 | 140269 | 155558 10 | 34:34.09 | 2:34.17 | 155559 | 167125 11 | 37:08.26 | 5:20.02 | 167126 | 191127 12 | 42:28.28 | 2:52.28 | 191128 | 204055 13 | 45:20.56 | 3:33.20 | 204056 | 220050 14 | 48:54.01 | 10:37.37 | 220051 | 267862 15 | 59:31.38 | 4:38.03 | 267863 | 288715

Range status and errors

Selected range

Filename D:\QOTSA - Rated R B-Sides & Live At The Reading Festival 2000 (B0014461-02, disc 2).wav

Peak level 98.8 % Range quality 100.0 % Test CRC 437F83D1 Copy CRC 437F83D1 Copy OK

No errors occurred

AccurateRip summary

Track 1 accurately ripped (confidence 29) [0FD6BE96]Track 2 accurately ripped (confidence 29) [34F49031]Track 3 accurately ripped (confidence 29) [3140EF23]Track 4 accurately ripped (confidence 29) [A16DB9D2]Track 5 accurately ripped (confidence 29) [BA44C8AB]Track 6 accurately ripped (confidence 29) [E1C8F17C]Track 7 accurately ripped (confidence 28) [FC8BC436]Track 8 accurately ripped (confidence 27) [00597747]Track 9 accurately ripped (confidence 29) [CC58EB70]Track 10 accurately ripped (confidence 28) [26A7813E]Track 11 accurately ripped (confidence 29) [7664A5A8]Track 12 accurately ripped (confidence 29) [A52A307D]Track 13 accurately ripped (confidence 29) [2D5AB226]Track 14 accurately ripped (confidence 29) [2D8636D0]Track 15 accurately ripped (confidence 29) [89E3C374]

All tracks accurately ripped

End of status report


Трекер:  [ 06-Авг-2012 15:39 ]

  

Скачать .torrent

Размер .torrent файла 27 KB


Размер: 3.98 GB
Хэш (hash) релиза: b2f5248c160fed3389bd1e35dfb8882e26b90006

Торренты, похожие на Queens of the Stone Age скачать торрент

Форум Название Автор Размер S L Добавлен
Rосk | Mеtаl | Аltеrnаtivе, Рunk, Indереndеnt (mр3) ·· (Progressive Metal / Experimental) Gone Is Gone (Mastodon, Queens Of The Stone Age, At The Drive-In) - Echolocation - 2017, MP3, 320 kbps Galfimbul 133992188128 MB 0 0 1482670384

15:53

25-Дек-16

Rосk | Mеtаl | Аltеrnаtivе, Рunk, Indереndеnt (mр3) ·· (Stoner Rock/Alternative) Queens Of The Stone Age - Villains - 2017, MP3, 320 kbps Galfimbul 116292432111 MB 2 0 1502249770

06:36

9-Авг-17

Rосk | Mеtаl | Аltеrnаtivе, Рunk, Indереndеnt (mр3) ·· (Stoner Rock) Queens Of The Stone Age - 12 Bootlegs Soundboard (2014) Mp3 - 2014-2014, MP3, 320 kbps Galfimbul 17657572431.64 GB 0 0 1411474085

15:08

23-Сен-14

Rосk | Mеtаl | Аltеrnаtivе, Рunk, Indереndеnt (mр3) ·· (Stoner Rock) Queens Of The Stone Age (with Kyuss, Beaver) - Дискография 1997-2013 (48 релизов), MP3, 320 kbps Galfimbul 40860569643.81 GB 0 0 1411473813

15:03

23-Сен-14

Rосk | Mеtаl | Аltеrnаtivе, Рunk, Indереndеnt (mр3) ·· (Stoner Rock/Hard Rock) Queens of the Stone Age - ...Like Clockwork - 2013, MP3, 320 kbps _N_ 114087697109 MB 0 0 1373408290

01:18

10-Июл-13

Rосk | Mеtаl | Аltеrnаtivе, Рunk, Indереndеnt (losslеss) ·· (Stoner Rock) Queens of the Stone Age - …Like Clockwork - 2013, FLAC (tracks+.cue), lossless Galfimbul 307981461294 MB 0 0 1369860789

23:53

29-Май-13

Rосk | Mеtаl | Аltеrnаtivе, Рunk, Indереndеnt (losslеss) ·· (Hard rock) Queens of the Stone Age - 5 releases 2005-2010 - FLAC (image+.cue), lossless Galfimbul 38655671063.6 GB 0 0 1331204460

14:01

8-Мар-12

Rосk | Mеtаl | Аltеrnаtivе, Рunk, Indереndеnt (losslеss) ·· (Stoner Rock / Hard Rock) Queens of the Stone Age - Rated R (Deluxe Edition) - 2010, FLAC (tracks+.cue), lossless Galfimbul 805254569768 MB 0 0 1297875760

20:02

16-Фев-11

Rосk | Mеtаl | Аltеrnаtivе, Рunk, Indереndеnt (losslеss) ·· (Stoner Rock/Hard Rock) Queens Of The Stone Age - Дискография (1998-2007), FLAC (images & tracks), lossless Galfimbul 24751893812.31 GB 0 0 1297875438

19:57

16-Фев-11

Еще никто не оставлял запись к записи скачать торрент Queens of the Stone Age . Будь первым!

!Обратная связь