Скачать через торрент музыку Wild Horses - The First Album бесплатно без регистрации torrent

Если у вас наблюдаются проблемы со скриншотами, переходом по ссылками, скачиванием торрентов - проблемы в блокировщике рекламы AdBlock. #хорошегоДня!


Статистика раздачи
Размер:  397 MB   |    Зарегистрирован:  5 лет 2 месяца   |    .torrent скачан:  13 раз   |   
Раздают:  1  
   
Загрузка...
 
Автор Сообщение

Galfimbul

avatar Galfimbul


Wild Horses: The First Album

Жанр: Hard Rock
Страна-производитель диска: UK
Год выхода альбома / издан на CD: 1980 / 2009
Издатель (лейбл): Krescendo Records
Номер по каталогу: KRECD32
Аудиокодек: WavPack (*.wv)
Тип рипа: image+.cue
Битрейт аудио: lossless
Продолжительность: 50:24
Релизер / ресурс: ley-barmaley / lossless-galaxy.ru
Наличие сканов в содержимом раздачи: полное сканирование (JPG, 600dpi)

Треклист:
1. Reservation
2. Face Down
3. Blackmail
4. Flyaway
5. Dealer
6. Street Girl
7. No Strings Attached
8. Criminal Tendencies
9. Night On The Town
10. Woman
* 11. The Axe
* 12. In The City
* 13. New York City

* Live bonus tracks from 1981 BBC "In Concert"

Jimmy Bain - vocals, bass, guitars, keyboards
Brian Robertson - guitars, bass (on "Flyaway" and "Nights On The Town"), vocals (on "Blackmail" and "Nights On The Town")
Neil Carter - guitars, keyboards
Clive Edwards - drums
Exact Audio Copy V1.0 beta 3 from 29. August 2011

Отчёт EAC об извлечении, выполненном 2. августа 2012, 18:55

Wild Horses / The First Album (Krescendo Records, KRECD32, UK)

Дисковод: ASUS DRW-1814BL Adapter: 0 ID: 0

Режим чтения : ДостоверностьИспользование точного потока : ДаОтключение кэша аудио : ДаИспользование указателей C2 : Нет

Коррекция смещения при чтении : 6Способность читать области Lead-in и Lead-out : НетЗаполнение пропущенных сэмплов тишиной : ДаУдаление блоков с тишиной в начале и конце : НетПри вычислениях CRC использовались нулевые сэмплы : ДаИнтерфейс : Встроенный Win32-интерфейс для Win NT/2000

Выходной формат : Внутренние WAV-операцииФормат сэмплов : 44.100 Гц; 16 бит; стерео

TOC извлечённого CD

Трек | Старт | Длительность | Начальный сектор | Конечный сектор --------------------------------------------------------------------- 1 | 0:00.00 | 3:47.65 | 0 | 17089 2 | 3:47.65 | 3:31.55 | 17090 | 32969 3 | 7:19.45 | 2:27.20 | 32970 | 44014 4 | 9:46.65 | 3:35.43 | 44015 | 60182 5 | 13:22.33 | 4:58.51 | 60183 | 82583 6 | 18:21.09 | 3:29.34 | 82584 | 98292 7 | 21:50.43 | 3:58.21 | 98293 | 116163 8 | 25:48.64 | 3:48.53 | 116164 | 133316 9 | 29:37.42 | 3:24.11 | 133317 | 148627 10 | 33:01.53 | 4:04.02 | 148628 | 166929 11 | 37:05.55 | 4:44.06 | 166930 | 188235 12 | 41:49.61 | 4:59.50 | 188236 | 210710 13 | 46:49.36 | 3:34.71 | 210711 | 226831

Характеристики диапазона извлечения и сообщения об ошибках

Выбранный диапазон

Имя файла G:\ley-barmaley\lossless-galaxy.ru\Wild Horses - The First Album (Krescendo Records, KRECD32, UK).wav

Пиковый уровень 99.4 % Скорость извлечения 7.8 X Качество диапазона 100.0 % CRC теста FE525197 CRC копии FE525197 Копирование... OK

Ошибок не произошло

AccurateRip: сводка

Трек 1 точность не определена (достоверность 3) [962638D4], AccurateRip вернул [DA16E7B7] (AR v2)Трек 2 точность не определена (достоверность 2) [B5491907], AccurateRip вернул [A6B3213E] (AR v2)Трек 3 точность не определена (достоверность 2) [1353FD0B], AccurateRip вернул [D5A7AEDC] (AR v2)Трек 4 точность не определена (достоверность 2) [84B47C3E], AccurateRip вернул [418C7A4E] (AR v2)Трек 5 точность не определена (достоверность 2) [45CC6A96], AccurateRip вернул [D3356AD3] (AR v2)Трек 6 точность не определена (достоверность 2) [8EAC07EC], AccurateRip вернул [F0ECEE3E] (AR v2)Трек 7 точность не определена (достоверность 3) [1296D789], AccurateRip вернул [4D42E159] (AR v2)Трек 8 точность не определена (достоверность 2) [CB308B8C], AccurateRip вернул [15BF9F36] (AR v2)Трек 9 точность не определена (достоверность 3) [C047E0D2], AccurateRip вернул [31AE6AAD] (AR v2)Трек 10 точность не определена (достоверность 2) [3BDB6361], AccurateRip вернул [5E9B3900] (AR v2)Трек 11 точность не определена (достоверность 2) [298698D4], AccurateRip вернул [D73E514A] (AR v2)Трек 12 точность не определена (достоверность 2) [897E03AA], AccurateRip вернул [79A249BF] (AR v2)Трек 13 точность не определена (достоверность 2) [449BA81F], AccurateRip вернул [53F6A794] (AR v2)

Ни один трек не прошёл проверки на точностьВ вашей базе может быть иной вариант штамповки диска

Конец отчёта

---- CUETools DB Plugin V2.1.3

[CTDB TOCID: 4rowwZLM1VONv2U1mTIK7UIluJs-] disk not present in database, Submit result: 4rowwZLM1VONv2U1mTIK7UIluJs- has been uploaded

==== Контрольная сумма отчёта B948C1C9517E0B520E43E4FBA5451F27CD1A4AB86D56050D922A3800389C1BC6 ====
-----------------------

DON'T MODIFY THIS FILE

-----------------------

PERFORMER: auCDtect Task Manager, ver. 1.5.1RC3 build 1.5.1.4Copyright (c) 2008-2010 y-soft. All rights reservedhttp://y-soft.org

ANALYZER: auCDtect: CD records authenticity detector, version 0.8.2Copyright (c) 2004 Oleg Berngardt. All rights reserved.Copyright (c) 2004 Alexander Djourik. All rights reserved.

FILE: Wild Horses - The First Album (Krescendo Records, KRECD32, UK).wv Size: 358337064 Hash: EB1E668895E703F864E9B4EA03042D57 Accuracy: -m0 Conclusion: CDDA 99% Signature: C95106884FEC0492873C843A28836DFA3715AC67FILE: Wild Horses - The First Album (Krescendo Records, KRECD32, UK).wav Size: 533508908 Hash: EB1E668895E703F864E9B4EA03042D57 Accuracy: -m0 Conclusion: CDDA 99% Signature: 1BC2EEFEFD429D9A54200A95041D6008A5D27705



Трекер:  [ 06-Авг-2012 15:39 ]

  

Скачать .torrent

Размер .torrent файла 18 KB


Размер: 397 MB
Хэш (hash) релиза: 1d0d7238801288e0c4b423775c6914864d17aa6a

Торренты, похожие на Wild Horses - The First Album скачать торрент

Форум Название Автор Размер S L Добавлен
Rосk | Mеtаl | Аltеrnаtivе, Рunk, Indереndеnt (losslеss) ·· (Hard Rock) Wild Horses - The First Album (Japan 1st Press 1993) - 1980, FLAC (image+.cue), lossless Galfimbul 264510856252 MB 0 0 1297876249

20:10

16-Фев-11

Еще никто не оставлял запись к записи скачать торрент Wild Horses - The First Album . Будь первым!

!Обратная связь