Скачать через торрент музыку Wild Horses - Stand Your Ground бесплатно без регистрации torrent

Если у вас наблюдаются проблемы со скриншотами, переходом по ссылками, скачиванием торрентов - проблемы в блокировщике рекламы AdBlock. #хорошегоДня!


Статистика раздачи
Размер:  436 MB   |    Зарегистрирован:  5 лет   |    .torrent скачан:  20 раз   |   
Раздают:  1  
   
Загрузка...
 
Автор Сообщение

Galfimbul

avatar Galfimbul


Wild Horses: Stand Your Ground

Жанр: Hard Rock
Страна-производитель диска: UK
Год выхода альбома / издан на CD: 1981 / 2009
Издатель (лейбл): Krescendo Records
Номер по каталогу: KRECD33
Аудиокодек: WavPack (*.wv)
Тип рипа: image+.cue
Битрейт аудио: lossless
Продолжительность: 55:27
Источник (релизер): ley-barmaley / lossless-galaxy.ru
Наличие сканов в содержимом раздачи: полное сканирование (JPG, 600dpi)

Треклист:
1. I'll Give You Love
2. In The City
3. Another Lover
4. Back In The U.S.A.
5. Stand Your Ground
6. The Axe
7. Miami Justice
8. Precious
9. New York City
10. Stake Out
* 11. Everlasting Love
* 12. I'll Give You Love
* 13. Stake Out
* 14. Stand Your Ground

* Live bonus tracks from 1981 BBC "In Concert"

Jimmy Bain – vocals, bass, rhythm guitar, keyboards
Brian Robertson – guitars, keyboards
John Lockton – guitars
Clive Edwards – drums
Exact Audio Copy V1.0 beta 3 from 29. August 2011

Отчёт EAC об извлечении, выполненном 2. августа 2012, 19:55

Wild Horses / Stand Your Ground (Krescendo Records, KRECD33, UK)

Дисковод: ASUS DRW-1814BL Adapter: 0 ID: 0

Режим чтения : ДостоверностьИспользование точного потока : ДаОтключение кэша аудио : ДаИспользование указателей C2 : Нет

Коррекция смещения при чтении : 6Способность читать области Lead-in и Lead-out : НетЗаполнение пропущенных сэмплов тишиной : ДаУдаление блоков с тишиной в начале и конце : НетПри вычислениях CRC использовались нулевые сэмплы : ДаИнтерфейс : Встроенный Win32-интерфейс для Win NT/2000

Выходной формат : Внутренние WAV-операцииФормат сэмплов : 44.100 Гц; 16 бит; стерео

TOC извлечённого CD

Трек | Старт | Длительность | Начальный сектор | Конечный сектор --------------------------------------------------------------------- 1 | 0:00.00 | 3:44.07 | 0 | 16806 2 | 3:44.07 | 4:44.12 | 16807 | 38118 3 | 8:28.19 | 3:26.61 | 38119 | 53629 4 | 11:55.05 | 3:50.63 | 53630 | 70942 5 | 15:45.68 | 3:36.09 | 70943 | 87151 6 | 19:22.02 | 4:20.01 | 87152 | 106652 7 | 23:42.03 | 5:00.13 | 106653 | 129165 8 | 28:42.16 | 4:36.62 | 129166 | 149927 9 | 33:19.03 | 3:26.32 | 149928 | 165409 10 | 36:45.35 | 3:40.19 | 165410 | 181928 11 | 40:25.54 | 3:18.73 | 181929 | 196851 12 | 43:44.52 | 4:30.09 | 196852 | 217110 13 | 48:14.61 | 4:00.01 | 217111 | 235111 14 | 52:14.62 | 3:12.04 | 235112 | 249515

Характеристики диапазона извлечения и сообщения об ошибках

Выбранный диапазон

Имя файла G:\ley-barmaley\lossless-galaxy.ru\Wild Horses - Stand Your Ground (Krescendo Records, KRECD33, UK).wav

Пиковый уровень 99.4 % Скорость извлечения 8.0 X Качество диапазона 100.0 % CRC теста 8973F5C9 CRC копии 8973F5C9 Копирование... OK

Ошибок не произошло

AccurateRip: сводка

Трек 1 точность не определена (достоверность 2) [A94A9F22], AccurateRip вернул [B8994501] (AR v2)Трек 2 точность не определена (достоверность 2) [8F2838B6], AccurateRip вернул [55620F38] (AR v2)Трек 3 точность не определена (достоверность 2) [A0439579], AccurateRip вернул [03AAE7C0] (AR v2)Трек 4 точность не определена (достоверность 2) [DC94525C], AccurateRip вернул [86D9636D] (AR v2)Трек 5 точность не определена (достоверность 2) [F9A39CA3], AccurateRip вернул [FEC0CC8F] (AR v2)Трек 6 точность не определена (достоверность 2) [05A35E36], AccurateRip вернул [9BCC0FE5] (AR v2)Трек 7 точность не определена (достоверность 2) [07D9099F], AccurateRip вернул [C8DF9269] (AR v2)Трек 8 точность не определена (достоверность 2) [1EA83486], AccurateRip вернул [596A3ADF] (AR v2)Трек 9 точность не определена (достоверность 2) [78C7D7BA], AccurateRip вернул [07B73E42] (AR v2)Трек 10 точность не определена (достоверность 2) [4A8959DA], AccurateRip вернул [EF80CD71] (AR v2)Трек 11 точность не определена (достоверность 2) [C5B5042E], AccurateRip вернул [4F46C6CE] (AR v2)Трек 12 точность не определена (достоверность 2) [4FAEB210], AccurateRip вернул [0E3DB1EE] (AR v2)Трек 13 точность не определена (достоверность 2) [F8F6BD8E], AccurateRip вернул [99F2128A] (AR v2)Трек 14 точность не определена (достоверность 2) [73E8B8B9], AccurateRip вернул [676AFA71] (AR v2)

Ни один трек не прошёл проверки на точностьВ вашей базе может быть иной вариант штамповки диска

Конец отчёта

---- CUETools DB Plugin V2.1.3

[CTDB TOCID: pmPT2wiycWfqPybxN8ENyy9P4JU-] disk not present in database, Submit result: pmPT2wiycWfqPybxN8ENyy9P4JU- has been uploaded

==== Контрольная сумма отчёта 0B29485ADA588D59CCC1545A004E837394427BDED79BE03524DA07EE99C682F3 ====
-----------------------

DON'T MODIFY THIS FILE

-----------------------

PERFORMER: auCDtect Task Manager, ver. 1.5.1RC3 build 1.5.1.4Copyright (c) 2008-2010 y-soft. All rights reservedhttp://y-soft.org

ANALYZER: auCDtect: CD records authenticity detector, version 0.8.2Copyright (c) 2004 Oleg Berngardt. All rights reserved.Copyright (c) 2004 Alexander Djourik. All rights reserved.

FILE: Wild Horses - Stand Your Ground (Krescendo Records, KRECD33, UK).wv Size: 394909058 Hash: 6DF5C25AE5CD8A13B57621A1E2A69DFB Accuracy: -m0 Conclusion: CDDA 100% Signature: 68FD26ABDF91F4C5601B59862E2B33F2D8712BBFFILE: Wild Horses - Stand Your Ground (Krescendo Records, KRECD33, UK).wav Size: 586861676 Hash: 6DF5C25AE5CD8A13B57621A1E2A69DFB Accuracy: -m0 Conclusion: CDDA 100% Signature: 181C633068EB86C10F6457ADFBBD62D4E5A6C421



Трекер:  [ 06-Авг-2012 15:39 ]

  

Скачать .torrent

Размер .torrent файла 19 KB


Размер: 436 MB
Хэш (hash) релиза: 46aee2b359a74329e30d09fcfbc4bc1e30ceeb63

Торренты, похожие на Wild Horses - Stand Your Ground скачать торрент

Форум Название Автор Размер S L Добавлен
Зарубежный Rock ·· (Hard Rock) Wild Horses - Stand Your Ground - 1981, MP3, 320 kbps Galfimbul 133281217127 MB 0 0 1353999780

10:03

27-Ноя-12

Еще никто не оставлял запись к записи скачать торрент Wild Horses - Stand Your Ground . Будь первым!

!Обратная связь