Скачать через торрент музыку Guns N’ Roses - Unplugged! бесплатно без регистрации torrent

Если у вас наблюдаются проблемы со скриншотами, переходом по ссылками, скачиванием торрентов - проблемы в блокировщике рекламы AdBlock. #хорошегоДня!


Статистика раздачи
Размер:  426 MB   |    Зарегистрирован:  5 лет   |    .torrent скачан:  32 раза   |   
Раздают:  1  
   
Загрузка...
 
Автор Сообщение

Galfimbul

avatar Galfimbul


Guns N’ Roses / Unplugged! (Bootleg)
Жанр: Hard Rock / Страна-производитель диска: Italy
Год издания: 1993 / Издатель (лейбл): Kiss The Stone Records
Номер по каталогу: KTS 220 - SB 5 / Страна: Los Angeles, California, U.S.
Аудиокодек: FLAC (*.flac) / Тип рипа: image+.cue
Битрейт аудио: lossless / Продолжительность: 00:58:28
Источник (релизер): I Am / Наличие сканов в содержимом раздачи: Front & Back
Треклист:Recorded live in Argentina 1993

01. Dead Flowers - 04:16
02. You Ain't The First - 03:06
03. You're Crazy - 05:31
04. Used To Love Her - 03:31
05. Patience (with some parts from Imagine) - 08:14
06. Knocking On Heavens Door - 08:00

Recorded live at the CGBG, NYC October, 1987

07. One In A Million - 07:18
08. Used To Love Her - 02:48
09. Patience - 07:09
10. Mr Brownstone - 04:57
11. Move To The City - 03:34
Exact Audio Copy V0.99 prebeta 5 from 4. May 2009

Отчёт EAC об извлечении, выполненном 22. июля 2012, 16:30

Guns N' Roses / Unplugged!

Дисковод: ATAPI iHAP122 9 Adapter: 0 ID: 0

Режим чтения : ДостоверностьИспользование точного потока : ДаОтключение кэша аудио : ДаИспользование указателей C2 : Нет

Коррекция смещения при чтении : 6Способность читать области Lead-in и Lead-out : НетЗаполнение пропущенных сэмплов тишиной : ДаУдаление блоков с тишиной в начале и конце : НетПри вычислениях CRC использовались нулевые сэмплы : ДаИнтерфейс : Встроенный Win32-интерфейс для Win NT/2000

Выходной формат : Внутренние WAV-операцииФормат сэмплов : 44.100 Гц; 16 бит; стерео

TOC извлечённого CD

Трек | Старт | Длительность | Начальный сектор | Конечный сектор --------------------------------------------------------------------- 1 | 0:00.00 | 4:16.45 | 0 | 19244 2 | 4:16.45 | 3:06.25 | 19245 | 33219 3 | 7:22.70 | 5:30.68 | 33220 | 58037 4 | 12:53.63 | 3:31.40 | 58038 | 73902 5 | 16:25.28 | 8:13.55 | 73903 | 110932 6 | 24:39.08 | 8:00.20 | 110933 | 146952 7 | 32:39.28 | 7:18.07 | 146953 | 179809 8 | 39:57.35 | 2:48.30 | 179810 | 192439 9 | 42:45.65 | 7:09.38 | 192440 | 224652 10 | 49:55.28 | 4:57.42 | 224653 | 246969 11 | 54:52.70 | 3:34.33 | 246970 | 263052

Характеристики диапазона извлечения и сообщения об ошибках

Выбранный диапазон

Имя файла D:\Запись\Guns N’ Roses - Unplugged\Guns N' Roses - Unplugged.wav

Пиковый уровень 100.0 % Качество диапазона 100.0 % CRC теста A351593D CRC копии A351593D Копирование... OK

Ошибок не произошло

AccurateRip: сводка

Трек 1 нет в базе данныхТрек 2 нет в базе данныхТрек 3 нет в базе данныхТрек 4 нет в базе данныхТрек 5 нет в базе данныхТрек 6 нет в базе данныхТрек 7 нет в базе данныхТрек 8 нет в базе данныхТрек 9 нет в базе данныхТрек 10 нет в базе данныхТрек 11 нет в базе данных

Ни одного трека нет в базе AccurateRip

Конец отчёта
AUDIOCHECKER v2.0 beta (build 457) - by Dester - <a href="mailto:opdester@freemail.hu" class="postLink">opdester@freemail.hu</a>~~~~~~~~~~~~~~~~~~~~~~~~~~~~~~~~~~

Started at: воскресенье, 22. 07. 2012. - 16:41.361 file found

1 -===- D:\Запись\Guns N’ Roses - Unplugged\Guns N’ Roses - Unplugged.flac Extracted successfully Conclusion: this track is CDDA with probability 100% Tempfile successfully deleted.

Finished at: воскресенье, 22. 07. 2012. - 16:45.10 (operation time: 0:03.33)



Трекер:  [ 06-Авг-2012 15:38 ]

  

Скачать .torrent

Размер .torrent файла 17 KB


Размер: 426 MB
Хэш (hash) релиза: 885fb49179c93f2ce8e3714b51fa07c14149f39e

Еще никто не оставлял запись к записи скачать торрент Guns N’ Roses - Unplugged! . Будь первым!

!Обратная связь