Скачать через торрент музыку Ian Gillan & Tony Iommi: WhoCares - 2012, FLAC бесплатно без регистрации torrent

Если у вас наблюдаются проблемы со скриншотами, переходом по ссылками, скачиванием торрентов - проблемы в блокировщике рекламы AdBlock. #хорошегоДня!


Статистика раздачи
Размер:  752 MB   |    Зарегистрирован:  5 лет 3 месяца   |    .torrent скачан:  37 раз   |   
Раздают:  1  
   
Загрузка...
 
Автор Сообщение

Galfimbul

avatar Galfimbul


Ian Gillan & Tony Iommi: WhoCares

Жанр: Hard Rock
Год издания: 2012
Производитель диска: (Ear Music / Edel, 0207592ERE)
Страна: United Kingdom
Аудиокодек: FLAC (*.flac)
Тип рипа: image+.cue
Битрейт аудио: lossless
Продолжительность: 47:05 / 48:30
Источник (релизер): Оригинальный диск из личной коллекции
Наличие сканов в содержимом раздачи: png, 300dpi.

Треклист:

CD 1:
01. WhoCares / Out Of My Mind (5:18)
02. Black Sabbath / Zero The Hero (7:37)
03. Ian Gillan Feat. Tony Iommi, Ian Paice & Roger Glover / Trashed (4:04)
04. M. Rakintzis Feat. Ian Gillan / Get Away (First Time On A Gillan CD) (4:44)
05. Iommi Feat. Glenn Hughes / Slip Away (Rare Track) (5:26)
06. Gillan / Don't Hold Me Back (4:38)
07. Ian Gillan / She Thinks It's A Crime (Limited 7"-vinyl B-side, First Time On CD) (3:56)
08. Repo Depo Feat. Ian Gillan / Easy Come, Easy Go (2012 Remix, Previously Unreleased) (4:40)
09. Deep Purple Feat. Ronnie James Dio / Smoke On The Water (Live With The London Symphony Orchestra) (6:41)

CD 2:
01. WhoCares / Holy Water (7:01)
02. Black Sabbath / Anno Mundi (6:14)
03. Iommi (Feat. Glenn Hughes) / Let It Down Easy (Rare Track) (4:32)
04. Ian Gillan / Hole In My Vest (7'-vinyl Single B-Side, First Time On CD) (3:40)
05. Gillan & Glover Feat. Dr. John / Gan't Believe You Wanna Leave Me (3:12)
06. Ian Gillan & The Javelins / Can I Get A Witness (3:04)
07. Garth Rockett & Moonshiners AKA IG / No Laughing In Heaven (Rare Track From Deleted CD) (6:06)
08. Ian Gillan / When A Blind Man Cries (Live At Absolute Radio, Previously Unreleased) (4:35)
09. Deep Purple / Dick Pimple (Previously Unreleased Studio Jam) (10:04)
Exact Audio Copy V0.99 prebeta 5 from 4. May 2009

EAC extraction logfile from 5. August 2012, 12:42

Ian Gillan & Tony Iommi / WhoCares (CD 1)

Used drive : Optiarc BD RW BD-5740H Adapter: 0 ID: 1

Read mode : SecureUtilize accurate stream : YesDefeat audio cache : YesMake use of C2 pointers : No

Read offset correction : 48Overread into Lead-In and Lead-Out : NoFill up missing offset samples with silence : YesDelete leading and trailing silent blocks : NoNull samples used in CRC calculations : YesUsed interface : Native Win32 interface for Win NT & 2000

Used output format : User Defined EncoderSelected bitrate : 128 kBit/sQuality : HighAdd ID3 tag : NoCommand line compressor : C:\Program Files (x86)\FLAC\flac.exeAdditional command line options : -T "DATE=%y" -T "GENRE=%m" -8 -V %s

TOC of the extracted CD

Track | Start | Length | Start sector | End sector --------------------------------------------------------- 1 | 0:00.00 | 5:18.21 | 0 | 23870 2 | 5:18.21 | 7:36.63 | 23871 | 58133 3 | 12:55.09 | 4:04.35 | 58134 | 76468 4 | 16:59.44 | 4:44.10 | 76469 | 97778 5 | 21:43.54 | 5:25.54 | 97779 | 122207 6 | 27:09.33 | 4:38.37 | 122208 | 143094 7 | 31:47.70 | 3:55.69 | 143095 | 160788 8 | 35:43.64 | 4:39.50 | 160789 | 181763 9 | 40:23.39 | 6:41.28 | 181764 | 211866

Range status and errors

Selected range

Filename C:\Ripped By liveevil\Ian Gillan & Tony Iommi - WhoCares (CD 1).wav

Peak level 100.0 % Range quality 100.0 % Test CRC 8F389BAE Copy CRC 8F389BAE Copy OK

No errors occurred

AccurateRip summary

Track 1 accurately ripped (confidence 1) [A29BFAD0]Track 2 accurately ripped (confidence 1) [B7FF0FFA]Track 3 accurately ripped (confidence 1) [9E46D577]Track 4 accurately ripped (confidence 1) [F6288ED6]Track 5 accurately ripped (confidence 1) [AC8FECE9]Track 6 accurately ripped (confidence 1) [910A38AA]Track 7 accurately ripped (confidence 1) [1610E4BD]Track 8 accurately ripped (confidence 1) [9CF8E922]Track 9 accurately ripped (confidence 1) [5E0D4BB3]

All tracks accurately ripped

End of status report
Exact Audio Copy V0.99 prebeta 5 from 4. May 2009

EAC extraction logfile from 5. August 2012, 12:26

Ian Gillan & Tony Iommi / WhoCares (CD 2)

Used drive : Optiarc BD RW BD-5740H Adapter: 0 ID: 1

Read mode : SecureUtilize accurate stream : YesDefeat audio cache : YesMake use of C2 pointers : No

Read offset correction : 48Overread into Lead-In and Lead-Out : NoFill up missing offset samples with silence : YesDelete leading and trailing silent blocks : NoNull samples used in CRC calculations : YesUsed interface : Native Win32 interface for Win NT & 2000

Used output format : User Defined EncoderSelected bitrate : 128 kBit/sQuality : HighAdd ID3 tag : NoCommand line compressor : C:\Program Files (x86)\FLAC\flac.exeAdditional command line options : -T "DATE=%y" -T "GENRE=%m" -8 -V %s

TOC of the extracted CD

Track | Start | Length | Start sector | End sector --------------------------------------------------------- 1 | 0:00.00 | 7:01.33 | 0 | 31607 2 | 7:01.33 | 6:14.29 | 31608 | 59686 3 | 13:15.62 | 4:32.07 | 59687 | 80093 4 | 17:47.69 | 3:39.46 | 80094 | 96564 5 | 21:27.40 | 3:11.74 | 96565 | 110963 6 | 24:39.39 | 3:04.28 | 110964 | 124791 7 | 27:43.67 | 6:06.29 | 124792 | 152270 8 | 33:50.21 | 4:35.12 | 152271 | 172907 9 | 38:25.33 | 10:04.20 | 172908 | 218227

Range status and errors

Selected range

Filename C:\Ripped By liveevil\Ian Gillan & Tony Iommi - WhoCares (CD 2).wav

Peak level 100.0 % Range quality 100.0 % Test CRC C316B28F Copy CRC C316B28F Copy OK

No errors occurred

AccurateRip summary

Track 1 not present in databaseTrack 2 not present in databaseTrack 3 not present in databaseTrack 4 not present in databaseTrack 5 not present in databaseTrack 6 not present in databaseTrack 7 not present in databaseTrack 8 not present in databaseTrack 9 not present in database

None of the tracks are present in the AccurateRip database

End of status report
WhoCares - Out Of My Mind:

Vocals: Ian Gillan
Guitars: Tony Iommi, Linde Lindstrom
Bass: Jason Newsted
Drums: Nicko McBrain
Keyboards: Jon Lord

Written By Ian Gillan & Tony Iommi
Produced By Tony Iommi & Ian Gillan
Recorded At Tone Hall & Sarm West
Engineer: Mike Exeter, Assistant At Sarm Dave Bloor
Mixed By Tony Iommi & Mike Exeter
Mastered By Dick Beetham @ 360 Mastering

WhoCares - Holy Water:

Vocals: Ian Gillan
Guitars: Tony Iommi, Steve Morris, Michael Lee Jackson
Drums: Randy Clarke
Bass: Rodney Appleby
Hammond Organ: Jesse O'Brien
Duduk Solo: Arshak Sahakyan
Underlying Duduk Intro Music & Keys: Ara Gevorgyan

Written By Ian Gillan & Steve Morris
Mixed By Tony Iommi & Mike Exeter
Mastered By Dick Beetham @ 360 Mastering


Трекер:  [ 06-Авг-2012 15:38 ]

  

Скачать .torrent

Размер .torrent файла 16 KB


Размер: 752 MB
Хэш (hash) релиза: a6ee9ebd82991bc42daeb684c458086ce707d309

Еще никто не оставлял запись к записи скачать торрент Ian Gillan & Tony Iommi: WhoCares - 2012, FLAC . Будь первым!

!Обратная связь