Скачать через торрент музыку Rick Wakeman & Adam Wakeman - Romance of the Victorian Age - 1995, FLAC бесплатно без регистрации torrent

Если у вас наблюдаются проблемы со скриншотами, переходом по ссылками, скачиванием торрентов - проблемы в блокировщике рекламы AdBlock. #хорошегоДня!


Статистика раздачи
Размер:  276 MB   |    Зарегистрирован:  5 лет 3 месяца   |    .torrent скачан:  40 раз   |   
Раздают:  1  
   
Загрузка...
 
Автор Сообщение

Galfimbul

avatar Galfimbul


Rick Wakeman & Adam Wakeman / Romance of the Victorian Age

Жанр: Symphonic Prog/New Age
Год издания: 1995
Издатель (лейбл): President
Номер по каталогу: RWCD25
Страна: UK
Аудиокодек: FLAC (*.flac)
Тип рипа: tracks+.cue
Битрейт аудио: lossless
Продолжительность: 61:49
Источник (релизер): вата
Наличие сканов в содержимом раздачи: нет
Треклист:
1. Burlington Arcade (2:48)
2. If Only (4:20)
3. The Last Teardrop (3:25)
4. Still Dreaming (4:11)
5. Memories Of The Victorian Age (3:33)
6. Lost In Words (6:06)
7. A Tale Of Love (7:55)
8. Mysteries Unfold (3:03)
9. Forever In My Heart (6:01)
10. Days Of Wonder (6:54)
11. The Swans (4:43)
12. Another Mellow Day (5:29)
13. Dance Of The Elves (3:21)
Exact Audio Copy V0.99 prebeta 5 from 4. May 2009

EAC extraction logfile from 16. July 2009, 16:56

Rick Wakeman & Adam Wakeman / Romance Of The Victorian Age

Used drive : TSSTcorpCDDVDW SH-S202J Adapter: 1 ID: 0

Read mode : SecureUtilize accurate stream : YesDefeat audio cache : YesMake use of C2 pointers : No

Read offset correction : 6Overread into Lead-In and Lead-Out : NoFill up missing offset samples with silence : YesDelete leading and trailing silent blocks : NoNull samples used in CRC calculations : YesUsed interface : Installed external ASPI interfaceGap handling : Appended to previous track

Used output format : User Defined EncoderSelected bitrate : 128 kBit/sQuality : HighAdd ID3 tag : NoCommand line compressor : D:\Util\Music\Exact Audio Copy\Flac\flac.exeAdditional command line options : -8 -V -T "ARTIST=%a" -T "TITLE=%t" -T "ALBUM=%g" -T "DATE=%y" -T "TRACKNUMBER=%n" -T "TOTALTRACKS=%x" -T "GENRE=%m" -T "ALBUM ARTIST=%v" -T "ALBUMARTIST=%v" -T "COMMENT=EAC V0.99 prebeta 4, Secure Mode, Test & Copy, Accurat

TOC of the extracted CD

Track | Start | Length | Start sector | End sector --------------------------------------------------------- 1 | 0:00.33 | 2:50.10 | 33 | 12792 2 | 2:50.43 | 4:21.47 | 12793 | 32414 3 | 7:12.15 | 3:26.05 | 32415 | 47869 4 | 10:38.20 | 4:13.10 | 47870 | 66854 5 | 14:51.30 | 3:34.40 | 66855 | 82944 6 | 18:25.70 | 6:06.58 | 82945 | 110452 7 | 24:32.53 | 7:56.45 | 110453 | 146197 8 | 32:29.23 | 3:04.40 | 146198 | 160037 9 | 35:33.63 | 6:02.45 | 160038 | 187232 10 | 41:36.33 | 6:55.25 | 187233 | 218382 11 | 48:31.58 | 4:44.57 | 218383 | 239739 12 | 53:16.40 | 5:30.50 | 239740 | 264539 13 | 58:47.15 | 3:21.30 | 264540 | 279644

Track 1

Filename E:\Music\Rick Wakeman & Adam Wakeman - Romance Of The Victorian Age (1994)\01 - Burlington Arcade.wav

Pre-gap length 0:00:02.44

Peak level 97.8 % Track quality 100.0 % Test CRC F4A83294 Copy CRC F4A83294 Track not present in AccurateRip database Copy OK

Track 2

Filename E:\Music\Rick Wakeman & Adam Wakeman - Romance Of The Victorian Age (1994)\02 - If Only.wav

Pre-gap length 0:00:00.77

Peak level 99.4 % Track quality 100.0 % Test CRC 5D22750E Copy CRC 5D22750E Track not present in AccurateRip database Copy OK

Track 3

Filename E:\Music\Rick Wakeman & Adam Wakeman - Romance Of The Victorian Age (1994)\03 - The Last Teardrop.wav

Pre-gap length 0:00:00.76

Peak level 97.2 % Track quality 100.0 % Test CRC CC904686 Copy CRC CC904686 Track not present in AccurateRip database Copy OK

Track 4

Filename E:\Music\Rick Wakeman & Adam Wakeman - Romance Of The Victorian Age (1994)\04 - Still Dreaming.wav

Pre-gap length 0:00:00.96

Peak level 97.3 % Track quality 100.0 % Test CRC DA272E91 Copy CRC DA272E91 Track not present in AccurateRip database Copy OK

Track 5

Filename E:\Music\Rick Wakeman & Adam Wakeman - Romance Of The Victorian Age (1994)\05 - Memories Of The Victorian Age.wav

Pre-gap length 0:00:00.53

Peak level 96.2 % Track quality 99.9 % Test CRC 736144B2 Copy CRC 736144B2 Track not present in AccurateRip database Copy OK

Track 6

Filename E:\Music\Rick Wakeman & Adam Wakeman - Romance Of The Victorian Age (1994)\06 - Lost In Words.wav

Pre-gap length 0:00:00.46

Peak level 95.5 % Track quality 100.0 % Test CRC 6F469E3D Copy CRC 6F469E3D Track not present in AccurateRip database Copy OK

Track 7

Filename E:\Music\Rick Wakeman & Adam Wakeman - Romance Of The Victorian Age (1994)\07 - A Tale Of Love.wav

Pre-gap length 0:00:00.44

Peak level 99.4 % Track quality 100.0 % Test CRC 2D235B77 Copy CRC 2D235B77 Track not present in AccurateRip database Copy OK

Track 8

Filename E:\Music\Rick Wakeman & Adam Wakeman - Romance Of The Victorian Age (1994)\08 - Mysteries Unfold.wav

Pre-gap length 0:00:00.46

Peak level 84.7 % Track quality 100.0 % Test CRC A11A1792 Copy CRC A11A1792 Track not present in AccurateRip database Copy OK

Track 9

Filename E:\Music\Rick Wakeman & Adam Wakeman - Romance Of The Victorian Age (1994)\09 - Forever In My Heart.wav

Pre-gap length 0:00:00.84

Peak level 85.9 % Track quality 99.9 % Test CRC C053EF0D Copy CRC C053EF0D Track not present in AccurateRip database Copy OK

Track 10

Filename E:\Music\Rick Wakeman & Adam Wakeman - Romance Of The Victorian Age (1994)\10 - Days Of Wonder.wav

Pre-gap length 0:00:00.80

Peak level 97.4 % Track quality 100.0 % Test CRC DCC4ADC0 Copy CRC DCC4ADC0 Track not present in AccurateRip database Copy OK

Track 11

Filename E:\Music\Rick Wakeman & Adam Wakeman - Romance Of The Victorian Age (1994)\11 - The Swans.wav

Pre-gap length 0:00:00.40

Peak level 71.0 % Track quality 100.0 % Test CRC D8E049DD Copy CRC D8E049DD Track not present in AccurateRip database Copy OK

Track 12

Filename E:\Music\Rick Wakeman & Adam Wakeman - Romance Of The Victorian Age (1994)\12 - Another Mellow Day.wav

Pre-gap length 0:00:00.73

Peak level 97.3 % Track quality 100.0 % Test CRC 78FB6FC4 Copy CRC 78FB6FC4 Track not present in AccurateRip database Copy OK

Track 13

Filename E:\Music\Rick Wakeman & Adam Wakeman - Romance Of The Victorian Age (1994)\13 - Dance Of The Elves.wav

Pre-gap length 0:00:01.16

Peak level 97.8 % Track quality 100.0 % Test CRC 40D9E8D3 Copy CRC 40D9E8D3 Track not present in AccurateRip database Copy OK

None of the tracks are present in the AccurateRip database

No errors occurred

End of status report
REM GENRE InstrumentalREM DATE 1994REM DISCID B70E900DREM COMMENT "ExactAudioCopy v0.99pb5"PERFORMER "Rick Wakeman & Adam Wakeman"TITLE "Romance Of The Victorian Age"FILE "Rick Wakeman & Adam Wakeman - Romance Of The Victorian Age (1994)\01 - Burlington Arcade.wav" WAVE TRACK 01 AUDIO TITLE "Burlington Arcade" PERFORMER "Rick Wakeman & Adam Wakeman" PREGAP 00:00:33 INDEX 01 00:00:00 TRACK 02 AUDIO TITLE "If Only" PERFORMER "Rick Wakeman & Adam Wakeman" INDEX 00 02:49:27FILE "Rick Wakeman & Adam Wakeman - Romance Of The Victorian Age (1994)\02 - If Only.wav" WAVE INDEX 01 00:00:00 TRACK 03 AUDIO TITLE "The Last Teardrop" PERFORMER "Rick Wakeman & Adam Wakeman" INDEX 00 04:20:65FILE "Rick Wakeman & Adam Wakeman - Romance Of The Victorian Age (1994)\03 - The Last Teardrop.wav" WAVE INDEX 01 00:00:00 TRACK 04 AUDIO TITLE "Still Dreaming" PERFORMER "Rick Wakeman & Adam Wakeman" INDEX 00 03:25:08FILE "Rick Wakeman & Adam Wakeman - Romance Of The Victorian Age (1994)\04 - Still Dreaming.wav" WAVE INDEX 01 00:00:00 TRACK 05 AUDIO TITLE "Memories Of The Victorian Age" PERFORMER "Rick Wakeman & Adam Wakeman" INDEX 00 04:12:45FILE "Rick Wakeman & Adam Wakeman - Romance Of The Victorian Age (1994)\05 - Memories Of The Victorian Age.wav" WAVE INDEX 01 00:00:00 TRACK 06 AUDIO TITLE "Lost In Words" PERFORMER "Rick Wakeman & Adam Wakeman" INDEX 00 03:34:05FILE "Rick Wakeman & Adam Wakeman - Romance Of The Victorian Age (1994)\06 - Lost In Words.wav" WAVE INDEX 01 00:00:00 TRACK 07 AUDIO TITLE "A Tale Of Love" PERFORMER "Rick Wakeman & Adam Wakeman" INDEX 00 06:06:25FILE "Rick Wakeman & Adam Wakeman - Romance Of The Victorian Age (1994)\07 - A Tale Of Love.wav" WAVE INDEX 01 00:00:00 TRACK 08 AUDIO TITLE "Mysteries Unfold" PERFORMER "Rick Wakeman & Adam Wakeman" INDEX 00 07:56:10FILE "Rick Wakeman & Adam Wakeman - Romance Of The Victorian Age (1994)\08 - Mysteries Unfold.wav" WAVE INDEX 01 00:00:00 TRACK 09 AUDIO TITLE "Forever In My Heart" PERFORMER "Rick Wakeman & Adam Wakeman" INDEX 00 03:03:52FILE "Rick Wakeman & Adam Wakeman - Romance Of The Victorian Age (1994)\09 - Forever In My Heart.wav" WAVE INDEX 01 00:00:00 TRACK 10 AUDIO TITLE "Days Of Wonder" PERFORMER "Rick Wakeman & Adam Wakeman" INDEX 00 06:01:60FILE "Rick Wakeman & Adam Wakeman - Romance Of The Victorian Age (1994)\10 - Days Of Wonder.wav" WAVE INDEX 01 00:00:00 TRACK 11 AUDIO TITLE "The Swans" PERFORMER "Rick Wakeman & Adam Wakeman" INDEX 00 06:54:70FILE "Rick Wakeman & Adam Wakeman - Romance Of The Victorian Age (1994)\11 - The Swans.wav" WAVE INDEX 01 00:00:00 TRACK 12 AUDIO TITLE "Another Mellow Day" PERFORMER "Rick Wakeman & Adam Wakeman" INDEX 00 04:44:02FILE "Rick Wakeman & Adam Wakeman - Romance Of The Victorian Age (1994)\12 - Another Mellow Day.wav" WAVE INDEX 01 00:00:00 TRACK 13 AUDIO TITLE "Dance Of The Elves" PERFORMER "Rick Wakeman & Adam Wakeman" INDEX 00 05:29:38FILE "Rick Wakeman & Adam Wakeman - Romance Of The Victorian Age (1994)\13 - Dance Of The Elves.wav" WAVE INDEX 01 00:00:00
AUDIOCHECKER v2.0 beta (build 457) - by Dester - <a href="mailto:opdester@freemail.hu" class="postLink">opdester@freemail.hu</a>~~~~~~~~~~~~~~~~~~~~~~~~~~~~~~~~~~-=== НЕ РЕДАКТИРУЙТЕ ЭТОТ ФАЙЛ! ===-

Путь: ...\Rick Wakeman & Adam Wakeman - Romance Of The Victorian Age (1994)

01 -=- 01 - Burlington Arcade.flac -=- CDDA (100%)02 -=- 02 - If Only.flac -=- CDDA (100%)03 -=- 03 - The Last Teardrop.flac -=- CDDA (100%)04 -=- 04 - Still Dreaming.flac -=- CDDA (100%)05 -=- 05 - Memories Of The Victorian Age.flac -=- CDDA (100%)06 -=- 06 - Lost In Words.flac -=- CDDA (100%)07 -=- 07 - A Tale Of Love.flac -=- CDDA (100%)08 -=- 08 - Mysteries Unfold.flac -=- CDDA (100%)09 -=- 09 - Forever In My Heart.flac -=- CDDA (100%)10 -=- 10 - Days Of Wonder.flac -=- CDDA (100%)11 -=- 11 - The Swans.flac -=- CDDA (100%)12 -=- 12 - Another Mellow Day.flac -=- CDDA (100%)13 -=- 13 - Dance Of The Elves.flac -=- CDDA (100%)

Сводка 100,00% CDDA

98814724
[CUETools log; Date: 05.08.2012 9:25:37; Version: 2.1.4]
Pregap length 00:00:33.
[CTDB TOCID: DXzWCoFV9CGK0ItONvk6kJQ6GpA-] disk not present in database.
[AccurateRip ID: 001c3735-012272eb-b70e900d] found.
Track [ CRC | V2 ] Status
01 [872b5856|fef86ea1] (2+0/2) Accurately ripped
02 [1376230e|313a7e67] (2+0/2) Accurately ripped
03 [5e3c7ce7|9c90b26c] (2+0/2) Accurately ripped
04 [611f940e|d4f91f09] (2+0/2) Accurately ripped
05 [536b9f59|be9a5b5a] (2+0/2) Accurately ripped
06 [1652287e|e5930ca2] (2+0/2) Accurately ripped
07 [4aae82e5|8b0d4203] (2+0/2) Accurately ripped
08 [349e4c93|60ca3543] (2+0/2) Accurately ripped
09 [cc5cb43f|6cd50d0c] (2+0/2) Accurately ripped
10 [d4886589|d2efc76c] (2+0/2) Accurately ripped
11 [10890643|2551fed9] (2+0/2) Accurately ripped
12 [75e236aa|5632bd70] (2+0/2) Accurately ripped
13 [67e171f2|f8d8735d] (2+0/2) Accurately ripped

Track Peak [ CRC32 ] [W/O NULL] [ LOG ]
-- 99,4 [AFE27631] [7E47BB70]
01 97,8 [F4A83294] [5B05E95C] CRC32
02 99,4 [5D22750E] [33A20564] CRC32
03 97,1 [CC904686] [E3F321AE] CRC32
04 97,3 [DA272E91] [419F3C95] CRC32
05 96,2 [736144B2] [347950D1] CRC32
06 95,5 [6F469E3D] [E96C8586] CRC32
07 99,4 [2D235B77] [8E58E878] CRC32
08 84,7 [A11A1792] [672F4D86] CRC32
09 85,9 [C053EF0D] [9C59FC85] CRC32
10 97,4 [DCC4ADC0] [65F89E94] CRC32
11 71,0 [D8E049DD] [3B4CB57E] CRC32
12 97,3 [78FB6FC4] [93B1514B] CRC32
13 97,8 [40D9E8D3] [F60F8595] CRC32
Доп. информация: Ещё один нью-эйджевый альбом. Выложено по просьбе.
- Rick Wakeman / piano & keyboards
- Adam Wakeman / piano & keyboards, classical guitar
- Stuart Sawney /acoustic guitar (1), percussion programming


Трекер:  [ 06-Авг-2012 15:38 ]

  

Скачать .torrent

Размер .torrent файла 12 KB


Размер: 276 MB
Хэш (hash) релиза: 1b3c604efa4ceb42d85bb98474a1fa802e0d2534

Еще никто не оставлял запись к записи скачать торрент Rick Wakeman & Adam Wakeman - Romance of the Victorian Age - 1995, FLAC . Будь первым!

!Обратная связь