Скачать через торрент музыку Don Johnson ‎ - Let It Roll - 1989, FLAC бесплатно без регистрации torrent

Если у вас наблюдаются проблемы со скриншотами, переходом по ссылками, скачиванием торрентов - проблемы в блокировщике рекламы AdBlock. #хорошегоДня!


Статистика раздачи
Размер:  288 MB   |    Зарегистрирован:  5 лет 3 месяца   |    .torrent скачан:  29 раз   |   
Раздают:  1  
   
Загрузка...
 
Автор Сообщение

uzi2009

avatar uzi2009


Don Johnson ‎ / Let It Roll

Жанр: Pop Rock
Страна-производитель диска: UK
Год издания: 1989
Издатель (лейбл): Epic
Номер по каталогу: EPC 460857 2
Аудиокодек: FLAC (*.flac)
Тип рипа: image+.cue
Битрейт аудио: lossless
Продолжительность: 00:44:27
Наличие сканов : да

Треклист:
01. Other People's Lives 5:25
02. Tell It Like It Is 4:30
03. Your Love Is Safe With Me 4:22
04. A Better Place 5:25
05. When You Only Loved Me 3:55
06. Angel City 4:22
07. Lonely Too Long 4:20
08. Let It Roll 4:21
09. What If It Takes All Night 4:06
10. Little One's Lullaby 3:24
Exact Audio Copy V1.0 beta 1 from 15. November 2010

EAC extraction logfile from 19. July 2011, 8:44

Don Johnson / Let it roll

Used drive : HL-DT-STDVDRAM GSA-T10N Adapter: 0 ID: 1

Read mode : SecureUtilize accurate stream : YesDefeat audio cache : YesMake use of C2 pointers : No

Read offset correction : 667Overread into Lead-In and Lead-Out : NoFill up missing offset samples with silence : YesDelete leading and trailing silent blocks : NoNull samples used in CRC calculations : YesUsed interface : Native Win32 interface for Win NT & 2000

Used output format : User Defined EncoderSelected bitrate : 768 kBit/sQuality : HighAdd ID3 tag : NoCommand line compressor : C:\Program Files\Exact Audio Copy\FLAC\FLAC.EXEAdditional command line options : -6 -V -T "ARTIST=%a" -T "TITLE=%t" -T "ALBUM=%g" -T "DATE=%y" -T "TRACKNUMBER=%n" -T "GENRE=%m" -T "COMMENT=%e" %j--picture="%i"%j %s -o %d

TOC of the extracted CD

Track | Start | Length | Start sector | End sector --------------------------------------------------------- 1 | 0:00.00 | 5:27.47 | 0 | 24571 2 | 5:27.47 | 4:32.50 | 24572 | 45021 3 | 10:00.22 | 4:27.15 | 45022 | 65061 4 | 14:27.37 | 5:24.18 | 65062 | 89379 5 | 19:51.55 | 3:56.52 | 89380 | 107131 6 | 23:48.32 | 4:24.18 | 107132 | 126949 7 | 28:12.50 | 4:22.40 | 126950 | 146639 8 | 32:35.15 | 4:21.72 | 146640 | 166286 9 | 36:57.12 | 4:08.55 | 166287 | 184941 10 | 41:05.67 | 3:21.70 | 184942 | 200086

Range status and errors

Selected range

Filename C:\Documents and Settings\User\Desktop\Don\Don Johnson - Let it roll.wav

Peak level 95.8 % Extraction speed 0.2 X Range quality 99.9 % Copy CRC 12A7FF52 Copy OK

No errors occurred

AccurateRip summary

Track 1 not present in databaseTrack 2 not present in databaseTrack 3 not present in databaseTrack 4 not present in databaseTrack 5 not present in databaseTrack 6 not present in databaseTrack 7 not present in databaseTrack 8 not present in databaseTrack 9 not present in databaseTrack 10 not present in database

None of the tracks are present in the AccurateRip database

End of status report
REM GENRE "Pop Rock"REM DATE 1989REM DISCID 900A6B0AREM COMMENT "ExactAudioCopy v1.0b1"PERFORMER "Don Johnson"TITLE "Let It Roll"FILE "Don Johnson - Let it roll.flac" WAVE TRACK 01 AUDIO TITLE "Other People's Lives" PERFORMER "Don Johnson" INDEX 01 00:00:00 TRACK 02 AUDIO TITLE "Tell It Like It Is" PERFORMER "Don Johnson" INDEX 00 05:26:00 INDEX 01 05:27:47 TRACK 03 AUDIO TITLE "Your Love Is Safe With Me" PERFORMER "Don Johnson" INDEX 00 09:59:50 INDEX 01 10:00:22 TRACK 04 AUDIO TITLE "A Better Place" PERFORMER "Don Johnson" INDEX 00 14:26:00 INDEX 01 14:27:37 TRACK 05 AUDIO TITLE "When You Only Loved Me" PERFORMER "Don Johnson" INDEX 00 19:49:50 INDEX 01 19:51:55 TRACK 06 AUDIO TITLE "Angel City" PERFORMER "Don Johnson" INDEX 00 23:46:12 INDEX 01 23:48:32 TRACK 07 AUDIO TITLE "Lonely Too Long" PERFORMER "Don Johnson" INDEX 00 28:11:25 INDEX 01 28:12:50 TRACK 08 AUDIO TITLE "Let It Roll" PERFORMER "Don Johnson" INDEX 00 32:35:00 INDEX 01 32:35:15 TRACK 09 AUDIO TITLE "What If It Takes All Night" PERFORMER "Don Johnson" INDEX 00 36:54:50 INDEX 01 36:57:12 TRACK 10 AUDIO TITLE "Little One's Lullaby" PERFORMER "Don Johnson" INDEX 00 41:04:12 INDEX 01 41:05:67


Трекер:  [ 06-Авг-2012 11:03 ]

  

Скачать .torrent

Размер .torrent файла 12 KB


Размер: 288 MB
Хэш (hash) релиза: e8ac1134c20e379c660896e7e68a2f33b5e44235

Еще никто не оставлял запись к записи скачать торрент Don Johnson ‎ - Let It Roll - 1989, FLAC . Будь первым!

!Обратная связь