Скачать через торрент музыку Father John Misty - Fear Fun - 2012, FLAC бесплатно без регистрации torrent

Если у вас наблюдаются проблемы со скриншотами, переходом по ссылками, скачиванием торрентов - проблемы в блокировщике рекламы AdBlock. #хорошегоДня!


Статистика раздачи
Размер:  280 MB   |    Зарегистрирован:  5 лет   |    .torrent скачан:  26 раз   |   
Раздают:  1  
   
Загрузка...
 
Автор Сообщение

L


Father John Misty / Fear Fun

Жанр: Folk Rock, Country Rock
Страна-производитель диска: Europe
Год издания: 2012
Издатель (лейбл): Bella Union
Номер по каталогу: BELLAV332
Страна: US
Аудиокодек: FLAC (*.flac)
Тип рипа: image+.cue
Битрейт аудио: lossless
Продолжительность: 43:37
Источник (релизер): собственный CD
Наличие сканов в содержимом раздачи: нет

Треклист:

01. Funtimes In Babylon
02. Nancy From Now On
03. Hollywood Forever Cemetery Sings
04. I’m Writing A Novel
05. O I Long To Feel Your Arms Around Me
06. Misty’s Nightmares 1 And 2
07. Only Son Of The Ladiesman
08. This Is Sally Hatchet
09. Well, You Can Do It Without Me
10. Now I’m Learning To Love The War
11. Tee Pees 1-12
12. Everyman Needs A Companion
Exact Audio Copy V1.0 beta 3 from 29. August 2011

Отчёт EAC об извлечении, выполненном 4. августа 2012, 21:14

Father John Misty / Fear Fun

Дисковод: ASUS SDRW-08D2S-U Adapter: 1 ID: 0

Режим чтения : ДостоверностьИспользование точного потока : ДаОтключение кэша аудио : ДаИспользование указателей C2 : Нет

Коррекция смещения при чтении : 103Способность читать области Lead-in и Lead-out : НетЗаполнение пропущенных сэмплов тишиной : ДаУдаление блоков с тишиной в начале и конце : НетПри вычислениях CRC использовались нулевые сэмплы : ДаИнтерфейс : Встроенный Win32-интерфейс для Win NT/2000

Выходной формат : Пользовательский кодировщикВыбранный битрейт : 128 kBit/sКачество : ВысокийДобавление ID3-тега : НетУтилита сжатия : D:\Program Files\Exact Audio Copy\Flac\flac.exeДополнительные параметры : -V -8 -T "Date=%year%" -T "Genre=%genre%" %source%

TOC извлечённого CD

Трек | Старт | Длительность | Начальный сектор | Конечный сектор --------------------------------------------------------------------- 1 | 0:00.00 | 3:39.67 | 0 | 16491 2 | 3:39.67 | 3:54.12 | 16492 | 34053 3 | 7:34.04 | 3:10.42 | 34054 | 48345 4 | 10:44.46 | 3:35.06 | 48346 | 64476 5 | 14:19.52 | 2:23.26 | 64477 | 75227 6 | 16:43.03 | 3:13.11 | 75228 | 89713 7 | 19:56.14 | 4:09.07 | 89714 | 108395 8 | 24:05.21 | 3:57.55 | 108396 | 126225 9 | 28:03.01 | 2:43.57 | 126226 | 138507 10 | 30:46.58 | 4:16.03 | 138508 | 157710 11 | 35:02.61 | 3:16.49 | 157711 | 172459 12 | 38:19.35 | 5:17.69 | 172460 | 196303

Характеристики диапазона извлечения и сообщения об ошибках

Выбранный диапазон

Имя файла C:\Downloads\Музыка\Father John Misty - Fear Fun [2012] FLAC\Father John Misty - Fear Fun.wav

Пиковый уровень 99.8 % Скорость извлечения 3.9 X Качество диапазона 100.0 % CRC копии 44FC718D Копирование... OK

Ошибок не произошло

Конец отчёта

==== Контрольная сумма отчёта B7294D71B54CA7893423B9C004544FEFD7D8FB346CEB973371CD071D407B2F30 ====
Доп. информация: http://youtu.be/b-XraF8tZM4
Design – Jeff Kleinsmith, Sasha Barr
Engineer – Hugo Nicoloson*, Jonathan Wilson
Engineer [Assistant] – Wylie Gelber
Mastered By – Greg Calbi
Mixed By – Phil Ek
Painting, Artwork [Interior] – Dimitri Drjunchin
Photography By [Insert Photo] – Emma Garr
Producer – Josh Tillman*, Jonathan Wilson
Double Bass [Upright], Strings – Gabriel Noel Piano, Other [Glamour] – Keefus Green Trumpet, Acoustic Guitar [Guitars Of Distinction], Mandolin – Jonathan Wilson Vocals [Female] – Leslie Stevens


Трекер:  [ 05-Авг-2012 08:07 ]

  

Скачать .torrent

Размер .torrent файла 11 KB


Размер: 280 MB
Хэш (hash) релиза: f854f13a2c0a75027b60cec752f44daecdd3957a

Еще никто не оставлял запись к записи скачать торрент Father John Misty - Fear Fun - 2012, FLAC . Будь первым!

!Обратная связь