Скачать через торрент музыку Bonney & Buzz - Дискография бесплатно без регистрации torrent

Если у вас наблюдаются проблемы со скриншотами, переходом по ссылками, скачиванием торрентов - проблемы в блокировщике рекламы AdBlock. #хорошегоДня!


Статистика раздачи
Размер:  849 MB   |    Зарегистрирован:  5 лет 3 месяца   |    .torrent скачан:  10 раз   |   
Раздают:  1  
   
Загрузка...
 
Автор Сообщение

L


Bonney & Buzz

Дискография ( 3 Альбома )



Жанр: Surf.Rock'n'roll,Blues
Год выпуска диска: 2005-2012
Производитель диска: USA
Аудио кодек: FLAC
Тип рипа: image+.cue
Битрейт аудио: lossless
Трэклист:

4 Августа 2012 года добавлен альбом:
2012 - Play Rough
Желающие могут ознакомиться
01. The Sunburst Kid (3’09”)
02. Thunderbird Road (2’29”)
03. Drawn To The Sea (3’10”)
04. Summerstar (3’58”)
05. Bandito (3’15”)
06. Land Of The Blackhearts (3’30”)
07. Doodlebug (2’09”)
08. Bubble And Squeak (2’53”)
09. Cruiser Six (2’52”)
10. Red Light Zone (3’17”)
11. Black Knickers (3’46”)
12. Electroglide (3’10”)
Exact Audio Copy V0.99 prebeta 4 from 23. January 2008

Отчёт EAC об извлечении, выполненном 24. октября 2009, 20:39

Bonney & Buzz / Rock-Ola

Дисковод: PIONEER DVD-RW DVR-216R Adapter: 1 ID: 1

Режим чтения : ДостоверностьИспользование точного потока : ДаОтключение кэша аудио : ДаИспользование указателей C2 : Нет

Коррекция смещения при чтении : 96Способность читать области Lead-in и Lead-out : НетЗаполнение пропущенных сэмплов тишиной : ДаУдаление блоков с тишиной в начале и конце : НетПри вычислениях CRC использовались нулевые сэмплы : ДаИнтерфейс : Установленный внешний ASPI-интерфейс

Выходной формат : Пользовательский кодировщикВыбранный битрейт : 1024 kBit/sКачество : ВысокийДобавление ID3-тэга : НетУтилита сжатия : C:\Program Files\Exact Audio Copy\FLAC\FLAC.EXEДополнительные параметры : -6 -V -T "ARTIST=%a" -T "TITLE=%t" -T "ALBUM=%g" -T "DATE=%y" -T "TRACKNUMBER=%n" -T "GENRE=%m" -T "COMMENT=%e" %s -o %d

TOC извлечённого CD

Трек | Старт | Длительность | Начальный сектор | Конечный сектор --------------------------------------------------------------------- 1 | 0:00.00 | 3:09.16 | 0 | 14190 2 | 3:09.16 | 2:29.39 | 14191 | 25404 3 | 5:38.55 | 3:10.50 | 25405 | 39704 4 | 8:49.30 | 3:58.32 | 39705 | 57586 5 | 12:47.62 | 3:15.62 | 57587 | 72273 6 | 16:03.49 | 3:30.29 | 72274 | 88052 7 | 19:34.03 | 2:09.42 | 88053 | 97769 8 | 21:43.45 | 2:53.72 | 97770 | 110816 9 | 24:37.42 | 2:52.05 | 110817 | 123721 10 | 27:29.47 | 3:17.44 | 123722 | 138540 11 | 30:47.16 | 3:46.45 | 138541 | 155535 12 | 34:33.61 | 3:10.57 | 155536 | 169842

Характеристики диапазона извлечения и сообщения об ошибках

Выбранный диапазон

Имя файла I:\BitComet\Bonney & Buzz(flac)\Rock-Ola\Bonney & Buzz - Rock-Ola.wav

Пиковый уровень 97.8 % Качество диапазона 100.0 % CRC копии 369E9613 Копирование... OK

Ошибок не произошло

AccurateRip: сводка

Трек 1 точное извлечение (доверие 1) [F33CAA3F]Трек 2 точное извлечение (доверие 1) [6414E639]Трек 3 точное извлечение (доверие 1) [D682074B]Трек 4 точное извлечение (доверие 1) [40D1BF2A]Трек 5 точное извлечение (доверие 1) [365CD7A2]Трек 6 точное извлечение (доверие 1) [94B885E4]Трек 7 точное извлечение (доверие 1) [9FBF8820]Трек 8 точное извлечение (доверие 1) [086A97AD]Трек 9 точное извлечение (доверие 1) [39B5F237]Трек 10 точное извлечение (доверие 1) [FE6E90F6]Трек 11 точное извлечение (доверие 1) [11881BF5]Трек 12 точное извлечение (доверие 1) [218290B7]

Все треки извлечены точно

Конец отчёта
01. Amazing Grace (2’16”)
02. Goofin' Around (2’52”)
03. Cast Your Fate To The Wind (3’23”)
04. The Green Leaves Of Summer (2’35”)
05. Bad Penny Blues (2’34”)
06. Czardas (2’17”)
07. Last Date (2’17”)
08. El Bimbo (2’33”)
09. Can Can (4’23”)
10. Honky Tonk (4’27”)
11. Swinging Shepherd Blues (3’28”)
12. The Breeze & I (2’58”)
13. Blue Monk (3’25”)
14. The Stumble (2’36”)
15. Raunchy (2’21”)
16. F.B.I. (7’37”)
17. Along Came Linda (1’36”)
Exact Audio Copy V0.99 prebeta 4 from 23. January 2008

Отчёт EAC об извлечении, выполненном 24. октября 2009, 20:23

Bonney & Buzz / Bang It Again!

Дисковод: PIONEER DVD-RW DVR-216R Adapter: 1 ID: 1

Режим чтения : ДостоверностьИспользование точного потока : ДаОтключение кэша аудио : ДаИспользование указателей C2 : Нет

Коррекция смещения при чтении : 96Способность читать области Lead-in и Lead-out : НетЗаполнение пропущенных сэмплов тишиной : ДаУдаление блоков с тишиной в начале и конце : НетПри вычислениях CRC использовались нулевые сэмплы : ДаИнтерфейс : Установленный внешний ASPI-интерфейс

Выходной формат : Пользовательский кодировщикВыбранный битрейт : 1024 kBit/sКачество : ВысокийДобавление ID3-тэга : НетУтилита сжатия : C:\Program Files\Exact Audio Copy\FLAC\FLAC.EXEДополнительные параметры : -6 -V -T "ARTIST=%a" -T "TITLE=%t" -T "ALBUM=%g" -T "DATE=%y" -T "TRACKNUMBER=%n" -T "GENRE=%m" -T "COMMENT=%e" %s -o %d

TOC извлечённого CD

Трек | Старт | Длительность | Начальный сектор | Конечный сектор --------------------------------------------------------------------- 1 | 0:00.00 | 2:16.47 | 0 | 10246 2 | 2:16.47 | 2:52.19 | 10247 | 23165 3 | 5:08.66 | 3:23.71 | 23166 | 38461 4 | 8:32.62 | 2:35.04 | 38462 | 50090 5 | 11:07.66 | 2:34.71 | 50091 | 61711 6 | 13:42.62 | 2:17.29 | 61712 | 72015 7 | 16:00.16 | 2:17.20 | 72016 | 82310 8 | 18:17.36 | 2:33.22 | 82311 | 93807 9 | 20:50.58 | 4:23.48 | 93808 | 113580 10 | 25:14.31 | 4:27.18 | 113581 | 133623 11 | 29:41.49 | 3:28.09 | 133624 | 149232 12 | 33:09.58 | 2:58.32 | 149233 | 162614 13 | 36:08.15 | 3:25.71 | 162615 | 178060 14 | 39:34.11 | 2:36.20 | 178061 | 189780 15 | 42:10.31 | 2:21.03 | 189781 | 200358 16 | 44:31.34 | 7:37.06 | 200359 | 234639 17 | 52:08.40 | 1:36.54 | 234640 | 241893

Характеристики диапазона извлечения и сообщения об ошибках

Выбранный диапазон

Имя файла I:\BitComet\Bonney & Buzz(flac)\Bang It Again!\Bonney & Buzz - Bang It Again!.wav

Пиковый уровень 98.1 % Качество диапазона 100.0 % CRC копии 59EA6513 Копирование... OK

Ошибок не произошло

AccurateRip: сводка

Трек 1 точное извлечение (доверие 2) [684D54AB]Трек 2 точное извлечение (доверие 2) [34089E8A]Трек 3 точное извлечение (доверие 2) [C1EE9418]Трек 4 точное извлечение (доверие 2) [394F0AE5]Трек 5 точное извлечение (доверие 2) [E510DF22]Трек 6 точное извлечение (доверие 2) [6361825F]Трек 7 точное извлечение (доверие 2) [F0C67675]Трек 8 точное извлечение (доверие 2) [1608D79A]Трек 9 точное извлечение (доверие 2) [90CFF8C2]Трек 10 точное извлечение (доверие 2) [236970E6]Трек 11 точное извлечение (доверие 2) [CBB201D6]Трек 12 точное извлечение (доверие 2) [54811944]Трек 13 точное извлечение (доверие 2) [3854583B]Трек 14 точное извлечение (доверие 2) [1038392D]Трек 15 точное извлечение (доверие 2) [1EFC3742]Трек 16 точное извлечение (доверие 2) [CB7424FF]Трек 17 точное извлечение (доверие 2) [CA5BC36A]

Все треки извлечены точно

Конец отчёта
01. Perestroika (2:53))
02. Wounded Knee (3:17
03. Jungle Surf (2:20)
04. Swampfrog (2:59)
05. The Hunter (3:15)
06. Low Rider (2:03)
07. Mystery Surfer (2:40)
08. Teenheat (2:20)
09. Devils Slide (3:20)
10. Rampant (2:49)
11. Deep Sleep (2:06)
12. The Eternal Surf (4:37)
Exact Audio Copy V0.99 prebeta 5 from 4. May 2009

Отчёт EAC об извлечении, выполненном 2. августа 2012, 21:41

Bonney & Buzz / Play Rough

Дисковод: PLEXTOR DVDR PX-880SA Adapter: 1 ID: 0

Режим чтения : ДостоверностьИспользование точного потока : ДаОтключение кэша аудио : ДаИспользование указателей C2 : Нет

Коррекция смещения при чтении : 6Способность читать области Lead-in и Lead-out : НетЗаполнение пропущенных сэмплов тишиной : ДаУдаление блоков с тишиной в начале и конце : НетПри вычислениях CRC использовались нулевые сэмплы : ДаИнтерфейс : Установленный внешний ASPI-интерфейс

Выходной формат : Пользовательский кодировщикВыбранный битрейт : 1024 kBit/sКачество : ВысокийДобавление ID3-тэга : НетУтилита сжатия : C:\Program Files\Exact Audio Copy\FLAC\FLAC.EXEДополнительные параметры : -6 -V -T "ARTIST=%a" -T "TITLE=%t" -T "ALBUM=%g" -T "DATE=%y" -T "TRACKNUMBER=%n" -T "GENRE=%m" -T "COMMENT=%e" %s -o %d

TOC извлечённого CD

Трек | Старт | Длительность | Начальный сектор | Конечный сектор --------------------------------------------------------------------- 1 | 0:00.00 | 2:53.31 | 0 | 13005 2 | 2:53.31 | 3:17.72 | 13006 | 27852 3 | 6:11.28 | 2:20.25 | 27853 | 38377 4 | 8:31.53 | 2:59.47 | 38378 | 51849 5 | 11:31.25 | 3:15.28 | 51850 | 66502 6 | 14:46.53 | 2:03.27 | 66503 | 75754 7 | 16:50.05 | 2:40.50 | 75755 | 87804 8 | 19:30.55 | 2:20.27 | 87805 | 98331 9 | 21:51.07 | 3:20.53 | 98332 | 113384 10 | 25:11.60 | 2:49.00 | 113385 | 126059 11 | 28:00.60 | 2:06.29 | 126060 | 135538 12 | 30:07.14 | 4:37.24 | 135539 | 156337

Характеристики диапазона извлечения и сообщения об ошибках

Выбранный диапазон

Имя файла F:\BitComet\Bonney & Buzz(flac)\2012 - Play Rough\Bonney & Buzz - Play Rough.wav

Пиковый уровень 97.6 % Качество диапазона 100.0 % CRC теста A6EC06A9 CRC копии A6EC06A9 Копирование... OK

Ошибок не произошло

AccurateRip: сводка

Трек 1 нет в базе данныхТрек 2 нет в базе данныхТрек 3 нет в базе данныхТрек 4 нет в базе данныхТрек 5 нет в базе данныхТрек 6 нет в базе данныхТрек 7 нет в базе данныхТрек 8 нет в базе данныхТрек 9 нет в базе данныхТрек 10 нет в базе данныхТрек 11 нет в базе данныхТрек 12 нет в базе данных

Ни одного трека нет в базе AccurateRip

Конец отчёта
Two UK guitar legends from the 60's are together for the first time on this fabulous new CD. Rock-Ola features Bill Bonney of The Fentones ("The Mexican" and "The Breeze & I") and Pete "Buzz" Miller ("Can Can 62" and "Totem Pole"). Buzz was also half of the Shig & Buzz project that released the CD Double Diamonds on Shag's Mai Tai Records label in the mid-90's. Rock-Ola contains twelve more "diamonds", with a smooth, deep Euro-instro sound not too removed from The Shadows, but dense with mystery and intrigue.
Anyone with even a vague awareness of rock and roll music already knows that England in the early sixties was where the action was. Which brings us to The Fentones and The Jaywalkers
Доп. информация: Bonney & Buzz - Дуэт известных в 60-е годы гитаристов: Bill Bonney - басгитарист группы The Fentones и Pete "Buzz" Miller - сологитарист групп Offbeats, The Jaywalkers.

Трекер:  [ 05-Авг-2012 08:02 ]

  

Скачать .torrent

Размер .torrent файла 19 KB


Размер: 849 MB
Хэш (hash) релиза: a2ac485047f25546a625d4941fdef6d1e0bbb65e

Еще никто не оставлял запись к записи скачать торрент Bonney & Buzz - Дискография . Будь первым!

!Обратная связь