Скачать через торрент музыку Acid Mothers Temple & The Melting Paraiso UFO - Son Of A Bitches Brew - 2012, FLAC бесплатно без регистрации torrent

Если у вас наблюдаются проблемы со скриншотами, переходом по ссылками, скачиванием торрентов - проблемы в блокировщике рекламы AdBlock. #хорошегоДня!


Статистика раздачи
Размер:  524 MB   |    Зарегистрирован:  5 лет 3 месяца   |    .torrent скачан:  29 раз   |   
Раздают:  1  
   
Загрузка...
 
Автор Сообщение

L


Acid Mothers Temple & The Melting Paraiso UFO / Son Of A Bitches Brew

Жанр: Progressive Rock, Psychedelic Rock, Experimental
Страна-производитель диска: US
Год издания: 2012
Издатель (лейбл): Important Records
Номер по каталогу: IMPREC 356
Страна: Japan
Аудиокодек: FLAC (*.flac)
Тип рипа: tracks+.cue
Битрейт аудио: lossless
Продолжительность: 73:28
Источник (релизер): waffles.fm
Наличие сканов в содержимом раздачи: нет
Треклист:
1 Son Of A Bitches Brew 17:16
2 Helen Buddha; Miss Condom X 7:01
3 Fellatioh's Dance Also Bitch's Blow 12:21
4 Water Babies Kill Kill Kill 19:10
5 Theme From Violence Jack Johnson 5:31
6 Tabata Mitsuru 3:31
7 Sweet Peanut Vs Macedonian Beauty 8:38
Exact Audio Copy V1.0 beta 3 from 29. August 2011

EAC extraction logfile from 28. April 2012, 9:37

Acid Mothers Temple & The Melting Paraiso U.F.O. / Son Of A Bitches Brew

Used drive : HL-DT-STDVDRAM GT30N Adapter: 0 ID: 0

Read mode : SecureUtilize accurate stream : YesDefeat audio cache : YesMake use of C2 pointers : No

Read offset correction : 103Overread into Lead-In and Lead-Out : NoFill up missing offset samples with silence : YesDelete leading and trailing silent blocks : NoNull samples used in CRC calculations : YesUsed interface : Native Win32 interface for Win NT & 2000Gap handling : Appended to previous track

Used output format : User Defined EncoderSelected bitrate : 320 kBit/sQuality : HighAdd ID3 tag : NoCommand line compressor : C:\Program Files (x86)\Exact Audio Copy\Flac\flac.exeAdditional command line options : -8 -V -T "ARTIST=%artist%" -T "TITLE=%title%" -T "ALBUM=%albumtitle%" -T "DATE=%year%" -T "TRACKNUMBER=%tracknr%" -T "GENRE=%genre%" -T "PERFORMER=%albuminterpret%" -T "COMPOSER=%composer%" %haslyrics%--tag-from-file=LYRICS="%lyricsfile%"%haslyrics% -T "ALBUMARTIST=%albumartist%" -T "DISCNUMBER=%cdnumber%" -T "TOTALDISCS=%totalcds%" -T "TOTALTRACKS=%numtracks%" -T "COMMENT=%comment%" %source% -o %dest%

TOC of the extracted CD

Track | Start | Length | Start sector | End sector --------------------------------------------------------- 1 | 0:00.00 | 17:15.52 | 0 | 77676 2 | 17:15.52 | 7:01.28 | 77677 | 109279 3 | 24:17.05 | 12:21.21 | 109280 | 164875 4 | 36:38.26 | 19:10.25 | 164876 | 251150 5 | 55:48.51 | 5:30.35 | 251151 | 275935 6 | 61:19.11 | 3:31.15 | 275936 | 291775 7 | 64:50.26 | 8:37.70 | 291776 | 330620

Track 1

Filename C:\EACRips\01 - Son of a Bitches Brew.wav

Pre-gap length 0:00:02.00

Peak level 100.0 % Extraction speed 3.3 X Track quality 100.0 % Test CRC 978BF891 Copy CRC 978BF891 Track not present in AccurateRip database Copy OK

Track 2

Filename C:\EACRips\02 - Helen Buddha; Miss Condom X.wav

Peak level 100.0 % Extraction speed 4.0 X Track quality 100.0 % Test CRC A6971444 Copy CRC A6971444 Track not present in AccurateRip database Copy OK

Track 3

Filename C:\EACRips\03 - Fellatioh's Dance Also Bitch's Blow.wav

Peak level 100.0 % Extraction speed 4.6 X Track quality 100.0 % Test CRC D2FEAADF Copy CRC D2FEAADF Track not present in AccurateRip database Copy OK

Track 4

Filename C:\EACRips\04 - Water Babies Kill Kill Kill.wav

Peak level 100.0 % Extraction speed 5.0 X Track quality 99.9 % Test CRC C5687669 Copy CRC C5687669 Track not present in AccurateRip database Copy OK

Track 5

Filename C:\EACRips\05 - Theme from Violence Jack Johnson.wav

Peak level 100.0 % Extraction speed 5.3 X Track quality 100.0 % Test CRC AF3F158C Copy CRC AF3F158C Track not present in AccurateRip database Copy OK

Track 6

Filename C:\EACRips\06 - Tabata Mitsuru.wav

Peak level 99.2 % Extraction speed 5.1 X Track quality 100.0 % Test CRC 412A27A6 Copy CRC 412A27A6 Track not present in AccurateRip database Copy OK

Track 7

Filename C:\EACRips\07 - Sweet Peanut vs Macedonian Beauty.wav

Peak level 100.0 % Extraction speed 5.1 X Track quality 99.9 % Test CRC 140704F3 Copy CRC 140704F3 Track not present in AccurateRip database Copy OK

None of the tracks are present in the AccurateRip database

No errors occurred

End of status report

---- CUETools DB Plugin V2.1.3

[CTDB TOCID: .hwnjGCrjHJM1WiuHrpI2CDaCIE-] found, Submit result: .hwnjGCrjHJM1WiuHrpI2CDaCIE- has been confirmed[7947cddc] (1/1) Accurately ripped

==== Log checksum 8A675537A322F90E22A9EEA54FFE7D35653E519A636FA5814FCBADA7A084A3CB ====
REM GENRE "Psychedelic Rock"REM DATE 2012REM DISCID 57113807REM COMMENT "ExactAudioCopy v1.0b3"PERFORMER "Acid Mothers Temple & The Melting Paraiso U.F.O."TITLE "Son Of A Bitches Brew"FILE "01 - Son of a Bitches Brew.wav" WAVE TRACK 01 AUDIO TITLE "Son of a Bitches Brew" PERFORMER "Acid Mothers Temple & The Melting Paraiso U.F.O." INDEX 01 00:00:00FILE "02 - Helen Buddha; Miss Condom X.wav" WAVE TRACK 02 AUDIO TITLE "Helen Buddha; Miss Condom X" PERFORMER "Acid Mothers Temple & The Melting Paraiso U.F.O." INDEX 01 00:00:00FILE "03 - Fellatioh's Dance Also Bitch's Blow.wav" WAVE TRACK 03 AUDIO TITLE "Fellatioh's Dance Also Bitch's Blow" PERFORMER "Acid Mothers Temple & The Melting Paraiso U.F.O." INDEX 01 00:00:00FILE "04 - Water Babies Kill Kill Kill.wav" WAVE TRACK 04 AUDIO TITLE "Water Babies Kill Kill Kill" PERFORMER "Acid Mothers Temple & The Melting Paraiso U.F.O." INDEX 01 00:00:00FILE "05 - Theme from Violence Jack Johnson.wav" WAVE TRACK 05 AUDIO TITLE "Theme from Violence Jack Johnson" PERFORMER "Acid Mothers Temple & The Melting Paraiso U.F.O." INDEX 01 00:00:00FILE "06 - Tabata Mitsuru.wav" WAVE TRACK 06 AUDIO TITLE "Tabata Mitsuru" PERFORMER "Acid Mothers Temple & The Melting Paraiso U.F.O." INDEX 01 00:00:00FILE "07 - Sweet Peanut vs Macedonian Beauty.wav" WAVE TRACK 07 AUDIO TITLE "Sweet Peanut vs Macedonian Beauty" PERFORMER "Acid Mothers Temple & The Melting Paraiso U.F.O." INDEX 01 00:00:00
d:\>d:\aucdtect -d/-m0 d:\zzz\*.wavauCDtect: CD records authenticity detector, version 0.8.2Copyright (c) 2004 Oleg Berngardt. All rights reserved.Copyright (c) 2004 Alexander Djourik. All rights reserved.------------------------------------------------------------Processing file: [01. Son of a Bitches Brew.wav]

------------------------------------------------------------This track looks like CDDA with probability 100%

------------------------------------------------------------Processing file: [02. Helen Buddha; Miss Condom X.wav]

------------------------------------------------------------This track looks like CDDA with probability 100%

------------------------------------------------------------Processing file: [03. Fellatioh's Dance Also Bitch's Blow.wav]

------------------------------------------------------------This track looks like CDDA with probability 100%

------------------------------------------------------------Processing file: [04. Water Babies Kill Kill Kill.wav]

------------------------------------------------------------This track looks like CDDA with probability 100%

------------------------------------------------------------Processing file: [05. Theme from Violence Jack Johnson.wav]

------------------------------------------------------------This track looks like CDDA with probability 100%

------------------------------------------------------------Processing file: [06. Tabata Mitsuru.wav]

------------------------------------------------------------This track looks like CDDA with probability 100%

------------------------------------------------------------Processing file: [07. Sweet Peanut vs Macedonian Beauty.wav]

------------------------------------------------------------This track looks like CDDA with probability 100%

------------------------------------------------------------Final Conclusion:------------------------------------------------------------These tracks looks like CDDA with probability 100%
Bass, Soprano Saxophone, Flute [Nei, Pungi], Recorder [Alto], Voice, Words By – Tsuyama Atsushi
Guitar, Electric Piano, Electronics, Effects [Fuzz-otamatone, Tape Machine], Dulcimer [Yangqin], Tambura [Tanbura], Producer, Mixed By, Engineer, Words By – Kawabata Makoto
Guitar, Guitar Synthesizer – Tabata Mitsuru (tracks: 6)
Performer [Space Whisper], Words By – Cotton Casino
Synthesizer – Higashi Hiroshi
Tabla – Tabla Man (tracks: 6)
Voice – Stoo Odom (tracks: 1)


Трекер:  [ 05-Авг-2012 08:05 ]

  

Скачать .torrent

Размер .torrent файла 11 KB


Размер: 524 MB
Хэш (hash) релиза: f5bf9dcae5d06da5821687db2dde24991b516549

Еще никто не оставлял запись к записи скачать торрент Acid Mothers Temple & The Melting Paraiso UFO - Son Of A Bitches Brew - 2012, FLAC . Будь первым!

!Обратная связь