Скачать через торрент музыку Madrugada - Madrugada - 1974, FLAC бесплатно без регистрации torrent

Если у вас наблюдаются проблемы со скриншотами, переходом по ссылками, скачиванием торрентов - проблемы в блокировщике рекламы AdBlock. #хорошегоДня!


Статистика раздачи
Размер:  312 MB   |    Зарегистрирован:  5 лет 3 месяца   |    .torrent скачан:  28 раз   |   
Раздают:  1  
   
Загрузка...
 
Автор Сообщение

L


Madrugada / Madrugada

Жанр: Rock Progressivo Italiano
Страна-производитель диска: Пираццкий диск
Год издания: 1974
Издатель (лейбл): Esoteric Recordings
Номер по каталогу: ECLEC107
Страна: Italy
Аудиокодек: FLAC (*.flac)
Тип рипа: image+.cue
Битрейт аудио: lossless
Продолжительность: 58:58
Источник (релизер): My CD
Наличие сканов в содержимом раздачи: да
Треклист:
1. Madrugada I (3:00)
2. Camminar (5:04)
3. Vieni Nella Strada (3:44)
4. Uomo Blu (6:02)
5. D.M.T. (3:53)
6. Mandrax (9:50)
7. Madrugada II (1:57)
8. Uomo Blu (live) (5:33)
9. Mandrax (live) (8:14)
10. Camminar (demo) (5:41)
11. Reborn (2006) (5:41)
Exact Audio Copy V1.0 beta 3 from 29. August 2011

Отчёт EAC об извлечении, выполненном 4. августа 2012, 9:47

Madrugada / Madrugada

Дисковод: Optiarc DVD RW AD-7560A Adapter: 0 ID: 0

Режим чтения : ДостоверностьИспользование точного потока : ДаОтключение кэша аудио : ДаИспользование указателей C2 : Нет

Коррекция смещения при чтении : 6Способность читать области Lead-in и Lead-out : НетЗаполнение пропущенных сэмплов тишиной : ДаУдаление блоков с тишиной в начале и конце : НетПри вычислениях CRC использовались нулевые сэмплы : ДаИнтерфейс : Встроенный Win32-интерфейс для Win NT/2000

Выходной формат : Пользовательский кодировщикВыбранный битрейт : 1024 kBit/sКачество : ВысокийДобавление ID3-тега : НетУтилита сжатия : C:\Program Files\Exact Audio Copy\Flac\flac.exeДополнительные параметры : -V -8 -T "Genre=%genre%" -T "Artist=%artist%" -T "Title=%title%" -T "Album=%albumtitle%" -T "Date=%year%" -T "Tracknumber=%tracknr%" -T "Comment=%comment%" %source%

TOC извлечённого CD

Трек | Старт | Длительность | Начальный сектор | Конечный сектор --------------------------------------------------------------------- 1 | 0:00.00 | 3:00.35 | 0 | 13534 2 | 3:00.35 | 5:10.62 | 13535 | 36846 3 | 8:11.22 | 3:45.33 | 36847 | 53754 4 | 11:56.55 | 6:08.37 | 53755 | 81391 5 | 18:05.17 | 3:54.10 | 81392 | 98951 6 | 21:59.27 | 9:56.18 | 98952 | 143669 7 | 31:55.45 | 2:04.25 | 143670 | 152994 8 | 33:59.70 | 5:33.15 | 152995 | 177984 9 | 39:33.10 | 8:13.60 | 177985 | 215019 10 | 47:46.70 | 5:40.50 | 215020 | 240569 11 | 53:27.45 | 5:30.62 | 240570 | 265381

Характеристики диапазона извлечения и сообщения об ошибках

Выбранный диапазон

Имя файла D:\Veushka\Madrugada\Madrugada - Madrugada.wav

Пиковый уровень 100.0 % Скорость извлечения 4.5 X Качество диапазона 100.0 % CRC теста E9BD6A5F CRC копии E9BD6A5F Копирование... OK

Ошибок не произошло

AccurateRip: сводка

Трек 1 отсутствует в базе данныхТрек 2 отсутствует в базе данныхТрек 3 отсутствует в базе данныхТрек 4 отсутствует в базе данныхТрек 5 отсутствует в базе данныхТрек 6 отсутствует в базе данныхТрек 7 отсутствует в базе данныхТрек 8 отсутствует в базе данныхТрек 9 отсутствует в базе данныхТрек 10 отсутствует в базе данныхТрек 11 отсутствует в базе данных

Ни одного трека нет в базе AccurateRip

Конец отчёта

==== Контрольная сумма отчёта 49CFF38467D68A06547D5F3438895C027D4701A059B2B5C036FF4E2B36C3A079 ====
- Gianfranco Pinto / eminent, Hammond organ, harpsichord, piano Rhodes and steinway, Moog, vocals
- Alessandro "Billy" Zanelli / bass guitar, triangle, Moog, vocals
- Pietro Rapelli / drums, percussion, Moog, vocals

Guest:
M. Paoluzzi / acoustic guitar (4)


Трекер:  [ 05-Авг-2012 08:03 ]

  

Скачать .torrent

Размер .torrent файла 13 KB


Размер: 312 MB
Хэш (hash) релиза: f58f931f83c066700e8b9a85ef701216f86ffb8b

Еще никто не оставлял запись к записи скачать торрент Madrugada - Madrugada - 1974, FLAC . Будь первым!

!Обратная связь