Скачать через торрент музыку Iron Butterfly - In-A-Gadda-Da-Vida - 1968 бесплатно без регистрации torrent

Если у вас наблюдаются проблемы со скриншотами, переходом по ссылками, скачиванием торрентов - проблемы в блокировщике рекламы AdBlock. #хорошегоДня!


Статистика раздачи
Размер:  221 MB   |    Зарегистрирован:  5 лет 2 месяца   |    .torrent скачан:  30 раз   |   
Раздают:  1  
   
Загрузка...
 
Автор Сообщение

L


Iron Butterfly - In-A-Gadda-Da-Vida

Жанр: Psychedelic Rock/Proto Prog
Страна-производитель диска: Germany
Год издания: 1968 (1991)
Издатель (лейбл): Universe
Номер по каталогу: UN 3 054
Страна: USA
Аудиокодек: APE (*.ape)
Тип рипа: image+.cue
Битрейт аудио: lossless
Продолжительность: 35:56.06
Источник (релизер): собственный диск
Наличие сканов в содержимом раздачи: да
Треклист:
01. Are You Happy [0:04:28.66]
02. Termination [0:02:46.66]
03. My Mirage [0:04:51.00]
04. Most Anything You Want [0:03:41.33]
05. Flowers And Beads [0:03:06.66]
06. In-A-Gadda-Da-Vida [0:17:01.73]
Exact Audio Copy V1.0 beta 3 from 29. August 2011

Отчёт EAC об извлечении, выполненном 4. августа 2012, 19:45

Iron Butterfly / In-A-Gadda-Da-Vida

Дисковод: SONY CD-RW CRX230ED Adapter: 0 ID: 1

Режим чтения : ДостоверностьИспользование точного потока : ДаОтключение кэша аудио : ДаИспользование указателей C2 : Нет

Коррекция смещения при чтении : 6Способность читать области Lead-in и Lead-out : НетЗаполнение пропущенных сэмплов тишиной : ДаУдаление блоков с тишиной в начале и конце : НетПри вычислениях CRC использовались нулевые сэмплы : ДаИнтерфейс : Встроенный Win32-интерфейс для Win NT/2000

Выходной формат : Внутренние WAV-операцииФормат сэмплов : 44.100 Гц; 16 бит; стерео

TOC извлечённого CD

Трек | Старт | Длительность | Начальный сектор | Конечный сектор --------------------------------------------------------------------- 1 | 0:00.00 | 4:28.50 | 0 | 20149 2 | 4:28.50 | 2:46.50 | 20150 | 32649 3 | 7:15.25 | 4:51.00 | 32650 | 54474 4 | 12:06.25 | 3:41.25 | 54475 | 71074 5 | 15:47.50 | 3:06.50 | 71075 | 85074 6 | 18:54.25 | 17:01.55 | 85075 | 161704

Характеристики диапазона извлечения и сообщения об ошибках

Выбранный диапазон

Имя файла E:\MusicCD\Torrent\Iron Butterfly - In-A-Gadda-Da-Vida\Iron Butterfly - In-A-Gadda-Da-Vida.wav

Пиковый уровень 100.0 % Скорость извлечения 6.9 X Качество диапазона 100.0 % CRC теста 541DB203 CRC копии 541DB203 Копирование... OK

Ошибок не произошло

AccurateRip: сводка

Трек 1 : извлечено точно (доверие 3) [5536AE52] (AR v2)Трек 2 : извлечено точно (доверие 3) [EEDF58D0] (AR v2)Трек 3 : извлечено точно (доверие 3) [3366E2CF] (AR v2)Трек 4 : извлечено точно (доверие 3) [3DC6E154] (AR v2)Трек 5 : извлечено точно (доверие 3) [767458AD] (AR v2)Трек 6 : извлечено точно (доверие 2) [F7A57A06] (AR v2)

Все треки извлечены точно

Конец отчёта

==== Контрольная сумма отчёта 21D330C06AD7705E1B3C4C0116F9D09A6DD87FEB86E029C86AD5CF8ACDBD8AC4 ====
REM GENRE RockREM DATE 1968REM DISCID 4B086C06REM COMMENT "ExactAudioCopy v1.0b3"PERFORMER "Iron Butterfly"TITLE "In-A-Gadda-Da-Vida"FILE "Iron Butterfly - In-A-Gadda-Da-Vida.ape" WAVE TRACK 01 AUDIO TITLE "Are You Happy" PERFORMER "Iron Butterfly" INDEX 01 00:00:00 TRACK 02 AUDIO TITLE "Termination" PERFORMER "Iron Butterfly" INDEX 00 04:27:25 INDEX 01 04:28:50 TRACK 03 AUDIO TITLE "My Mirage" PERFORMER "Iron Butterfly" INDEX 00 07:13:67 INDEX 01 07:15:25 TRACK 04 AUDIO TITLE "Most Anything You Want" PERFORMER "Iron Butterfly" INDEX 00 12:05:02 INDEX 01 12:06:25 TRACK 05 AUDIO TITLE "Flowers And Beads" PERFORMER "Iron Butterfly" INDEX 00 15:46:07 INDEX 01 15:47:50 TRACK 06 AUDIO TITLE "In-A-Gadda-Da-Vida" PERFORMER "Iron Butterfly" INDEX 00 18:52:62 INDEX 01 18:54:25
Рип с фирменного диска из моей коллекции.
Сканы на 600 dpi в комплекте.
Исключительно в целях ознакомления!
http://hardrockcafe.narod.ru/i/ironbutterfly.htm

Спасибо сайту hardrockcafe.narod.ru за предоставленную информацию!


Трекер:  [ 05-Авг-2012 08:12 ]

  

Скачать .torrent

Размер .torrent файла 18 KB


Размер: 221 MB
Хэш (hash) релиза: f0bb39686efefdb6fc427c1efdf15ed9d8183c0e

Еще никто не оставлял запись к записи скачать торрент Iron Butterfly - In-A-Gadda-Da-Vida - 1968 . Будь первым!

!Обратная связь