Скачать через торрент музыку Cirrus Bay - Whimsical Weather - 2012, FLAC бесплатно без регистрации torrent

Если у вас наблюдаются проблемы со скриншотами, переходом по ссылками, скачиванием торрентов - проблемы в блокировщике рекламы AdBlock. #хорошегоДня!


Статистика раздачи
Размер:  513 MB   |    Зарегистрирован:  5 лет   |    .torrent скачан:  9 раз   |   
Раздают:  1  
   
Загрузка...
 
Автор Сообщение

_N_

avatar _N_


Cirrus Bay - Whimsical Weather

Жанр: Neo-Prog
Год выпуска диска: 2012
Страна: USA
Производитель диска: Cirrus Bay / 7567-82344-2
Аудио кодек: FLAC
Тип рипа: image+.cue
Битрейт аудио: lossless
Продолжительность: 61:53
Наличие сканов в содержимом раздачи:

Трэклист:
01. Circles and Seasons (10:55)
02. Boundaries (10:23)
03. Wanderlust (8:39)
04. Awake Forever (2:55)
05. Gathering Clouds (6:58)
06. Me and the Wind (9:20)
07. Across the Cobblestones (12:40)

Состав:
- Sharra Acle / Vocals
- Anisha Gillham / Vocals
- Bill Gillham / Guitars, Keyboards, Mandolin, Vocals
- Mark Blasco / Drums, Bass Guitar
- Tom Prather / Engineer, Drums in 'Wanderlust'
Exact Audio Copy V1.0 beta 3 from 29. August 2011

EAC extraction logfile from 3. August 2012, 11:51

Cirrus Bay / Whimsical Weather

Used drive : TEAC CD-W552E Adapter: 1 ID: 0

Read mode : SecureUtilize accurate stream : YesDefeat audio cache : YesMake use of C2 pointers : No

Read offset correction : 6Overread into Lead-In and Lead-Out : NoFill up missing offset samples with silence : YesDelete leading and trailing silent blocks : NoNull samples used in CRC calculations : YesUsed interface : Installed external ASPI interface

Used output format : User Defined EncoderSelected bitrate : 32 kBit/sQuality : LowAdd ID3 tag : NoCommand line compressor : C:\Program Files\Exact Audio Copy\FLAC\FLAC.EXEAdditional command line options : -8 -V -T "ARTIST=%artist%" -T "ALBUM=%albumtitle%" -T "DATE=%year%" -T "GENRE=%genre%" -T "COMMENT=EAC FLAC -8" %source%

TOC of the extracted CD

Track | Start | Length | Start sector | End sector --------------------------------------------------------- 1 | 0:00.00 | 10:55.21 | 0 | 49145 2 | 10:55.21 | 10:23.22 | 49146 | 95892 3 | 21:18.43 | 8:39.49 | 95893 | 134866 4 | 29:58.17 | 2:55.60 | 134867 | 148051 5 | 32:54.02 | 6:58.27 | 148052 | 179428 6 | 39:52.29 | 9:20.16 | 179429 | 221444 7 | 49:12.45 | 12:40.73 | 221445 | 278517

Range status and errors

Selected range

Filename C:\Program Files\BitComet\Downloads\Cirrus Bay - Whimsical Weather (2012)\Cirrus Bay - Whimsical Weather.wav

Peak level 98.8 % Extraction speed 2.4 X Range quality 100.0 % Test CRC FB40E6DB Copy CRC FB40E6DB Copy OK

No errors occurred

AccurateRip summary

Track 1 not present in databaseTrack 2 not present in databaseTrack 3 not present in databaseTrack 4 not present in databaseTrack 5 not present in databaseTrack 6 not present in databaseTrack 7 not present in database

None of the tracks are present in the AccurateRip database

End of status report

==== Log checksum 4BCA88D7DB37C9534C98D34AF8EFEE3464433D428877677B19CE2C45E625D6A8 ====
REM GENRE "Progressive Rock"REM DATE 2012REM DISCID 650E8107REM COMMENT "ExactAudioCopy v1.0b3"PERFORMER "Cirrus Bay"TITLE "Whimsical Weather"FILE "Cirrus Bay - Whimsical Weather.flac" WAVE TRACK 01 AUDIO TITLE "Circles And Seasons" PERFORMER "Cirrus Bay" INDEX 01 00:00:00 TRACK 02 AUDIO TITLE "Boundaries" PERFORMER "Cirrus Bay" INDEX 01 10:55:21 TRACK 03 AUDIO TITLE "Wanderlust" PERFORMER "Cirrus Bay" INDEX 01 21:18:43 TRACK 04 AUDIO TITLE "Awake Forever" PERFORMER "Cirrus Bay" INDEX 01 29:58:17 TRACK 05 AUDIO TITLE "Gathering Clouds" PERFORMER "Cirrus Bay" INDEX 01 32:54:02 TRACK 06 AUDIO TITLE "Me And The Wind" PERFORMER "Cirrus Bay" INDEX 01 39:52:29 TRACK 07 AUDIO TITLE "Across The Cobblestones" PERFORMER "Cirrus Bay" INDEX 01 49:12:45


Трекер:  [ 04-Авг-2012 15:42 ]

  

Скачать .torrent

Размер .torrent файла 11 KB


Размер: 513 MB
Хэш (hash) релиза: 2d98220b02231670932ce7832a95b388bf656eeb

Еще никто не оставлял запись к записи скачать торрент Cirrus Bay - Whimsical Weather - 2012, FLAC . Будь первым!

!Обратная связь