Скачать через торрент музыку Blue Oyster Cult - Extraterrestrial Live бесплатно без регистрации torrent

Если у вас наблюдаются проблемы со скриншотами, переходом по ссылками, скачиванием торрентов - проблемы в блокировщике рекламы AdBlock. #хорошегоДня!


Статистика раздачи
Размер:  635 MB   |    Зарегистрирован:  5 лет 2 месяца   |    .torrent скачан:  4 раза   |   
Раздают:  1  
   
Загрузка...
 
Автор Сообщение

_N_

avatar _N_


Blue Oyster Cult - Extraterrestrial Live

Жанр: Hard Rock
Страна-производитель диска: Korea
Год издания: 1982
Издатель (лейбл): Columbia
Номер по каталогу: CMP-5512 (CGK 37946)
Страна: USA
Аудиокодек: FLAC (*.flac)
Тип рипа: image+.cue
Битрейт аудио: lossless
Продолжительность: 78:10
Источник (релизер): Stripakulina
Наличие сканов в содержимом раздачи: да, TIFF 600 DPI.
Треклист:
01. Dominance And Submission (5:56)
02. Cities On Flame (5:20)
03. Dr. Music (3:40)
04. The Red And The Black (4:39)
05. Joan Crawford (5:17)
06. Burnin' For You (4:51)
07. Roadhouse Blues (9:06)
08. Black Blade (6:17)
09. Hot Rails To Hell (5:03)
10. Godzilla (7:46)
11. Veteran Of The Psychic Wars (8:11)
12. E.T.I. (Extra Terrestrial Intelligence) (5:20)
13. (Don't Fear) The Reaper (6:45)
Exact Audio Copy V1.0 beta 3 from 29. August 2011

Отчёт EAC об извлечении, выполненном 3. августа 2012, 17:34

Blue Oyster Cult / Extraterrestrial Live [Korea Columbia CMP-5512]

Дисковод: PLEXTOR CD-R PREMIUM2 Adapter: 0 ID: 0

Режим чтения : ДостоверностьИспользование точного потока : ДаОтключение кэша аудио : ДаИспользование указателей C2 : Нет

Коррекция смещения при чтении : 30Способность читать области Lead-in и Lead-out : ДаЗаполнение пропущенных сэмплов тишиной : ДаУдаление блоков с тишиной в начале и конце : НетПри вычислениях CRC использовались нулевые сэмплы : ДаИнтерфейс : Встроенный Win32-интерфейс для Win NT/2000

Выходной формат : Внутренние WAV-операцииФормат сэмплов : 44.100 Гц; 16 бит; стерео

TOC извлечённого CD

Трек | Старт | Длительность | Начальный сектор | Конечный сектор --------------------------------------------------------------------- 1 | 0:00.00 | 5:56.37 | 0 | 26736 2 | 5:56.37 | 5:19.45 | 26737 | 50706 3 | 11:16.07 | 3:39.60 | 50707 | 67191 4 | 14:55.67 | 4:38.35 | 67192 | 88076 5 | 19:34.27 | 5:17.15 | 88077 | 111866 6 | 24:51.42 | 4:50.33 | 111867 | 133649 7 | 29:42.00 | 9:06.00 | 133650 | 174599 8 | 38:48.00 | 6:16.70 | 174600 | 202869 9 | 45:04.70 | 5:03.17 | 202870 | 225611 10 | 50:08.12 | 7:45.65 | 225612 | 260551 11 | 57:54.02 | 8:10.58 | 260552 | 297359 12 | 66:04.60 | 5:20.27 | 297360 | 321386 13 | 71:25.12 | 6:44.38 | 321387 | 351724

Характеристики диапазона извлечения и сообщения об ошибках

Выбранный диапазон

Имя файла F:\For http://рутраскер\Blue Oyster Cult - Extraterrestrial Live [Korea Columbia CMP-5512] - 1982\Blue Oyster Cult - Extraterrestrial Live [Korea Columbia CMP-5512].wav

Пиковый уровень 100.0 % Скорость извлечения 6.4 X Качество диапазона 100.0 % CRC теста 6ABC0D7E CRC копии 6ABC0D7E Копирование... OK

Ошибок не произошло

AccurateRip: сводка

Трек 1 точность не определена (достоверность 2) [A40C07AE], AccurateRip вернул [32AAFF27] (AR v2)Трек 2 точность не определена (достоверность 2) [2090A531], AccurateRip вернул [C2686014] (AR v2)Трек 3 точность не определена (достоверность 2) [A01FE4E5], AccurateRip вернул [52805D75] (AR v2)Трек 4 точность не определена (достоверность 2) [7064A0D7], AccurateRip вернул [893D8F7E] (AR v2)Трек 5 точность не определена (достоверность 2) [CB259489], AccurateRip вернул [8EAA791F] (AR v2)Трек 6 точность не определена (достоверность 2) [429B451B], AccurateRip вернул [A25A6782] (AR v2)Трек 7 точность не определена (достоверность 2) [42803C39], AccurateRip вернул [4671AD9E] (AR v2)Трек 8 точность не определена (достоверность 2) [36A753CB], AccurateRip вернул [C3346B22] (AR v2)Трек 9 точность не определена (достоверность 2) [A7FAD1A0], AccurateRip вернул [C181952B] (AR v2)Трек 10 точность не определена (достоверность 2) [B5380275], AccurateRip вернул [AF2E878E] (AR v2)Трек 11 точность не определена (достоверность 2) [A58EB154], AccurateRip вернул [84F35B49] (AR v2)Трек 12 точность не определена (достоверность 2) [8B86BC7F], AccurateRip вернул [A0FCD406] (AR v2)Трек 13 точность не определена (достоверность 2) [97438E05], AccurateRip вернул [ACC525DC] (AR v2)

Ни один трек не прошёл проверки на точностьВ вашей базе может быть иной вариант штамповки диска

Конец отчёта

---- CUETools DB Plugin V2.1.4

[CTDB TOCID: YIih_F91TZUz18O25VMFOf6EUao-] disk not present in databaseSubmit result: YIih_F91TZUz18O25VMFOf6EUao- has been uploaded

==== Контрольная сумма отчёта C7A1F0700CA9C9B947D2A47892C1DD6A98BE37101CF097897E75D5A4FCCB7345 ====
[CUETools log; Date: 03.08.2012 17:54:49; Version: 2.1.4][AccurateRip ID: 00234890-016724b8-cf12510d] found.Track [ CRC | V2 ] Status 01 [97b57d21|a40c07ae] (0+0/2) No match 02 [60f76ea6|2090a531] (0+0/2) No match 03 [341dd600|a01fe4e5] (0+0/2) No match 04 [33df64ed|7064a0d7] (0+0/2) No match 05 [33babb7a|cb259489] (0+0/2) No match 06 [c6ac30b0|429b451b] (0+0/2) No match 07 [3c2a0a34|42803c39] (0+0/2) No match 08 [ca1537e7|36a753cb] (0+0/2) No match 09 [e122400b|a7fad1a0] (0+0/2) No match 10 [02531d02|b5380275] (0+0/2) No match 11 [2b2530f1|a58eb154] (0+0/2) No match 12 [b475577b|8b86bc7f] (0+0/2) No match 13 [b8ca1721|97438e05] (0+0/2) No matchOffsetted by -542: 01 [32aaff27] (2/2) Accurately ripped 02 [c2686014] (2/2) Accurately ripped 03 [52805d75] (2/2) Accurately ripped 04 [893d8f7e] (2/2) Accurately ripped 05 [8eaa791f] (2/2) Accurately ripped 06 [a25a6782] (2/2) Accurately ripped 07 [4671ad9e] (2/2) Accurately ripped 08 [c3346b22] (2/2) Accurately ripped 09 [c181952b] (2/2) Accurately ripped 10 [af2e878e] (2/2) Accurately ripped 11 [84f35b49] (2/2) Accurately ripped 12 [a0fcd406] (2/2) Accurately ripped 13 [fff3977e] (0/2) No match (V2 was not tested)

Track Peak [ CRC32 ] [W/O NULL] [ LOG ] -- 100,0 [6ABC0D7E] [98AD8DC5] CRC32 01 99,9 [1448A6BC] [108F5159] 02 100,0 [03C71873] [04EB9B28] 03 100,0 [F5925473] [8AFB6A85] 04 100,0 [016194C2] [7054315E] 05 100,0 [4880F199] [4E7C08ED] 06 99,9 [9F193FD8] [66B807D3] 07 100,0 [6353C254] [7095C873] 08 100,0 [033D7FE0] [8DE38D98] 09 100,0 [697F76AF] [72F64D1C] 10 100,0 [5DF74A16] [63826B50] 11 100,0 [4C0B60F5] [4936EDC7] 12 100,0 [F3B25FCE] [5F532818] 13 100,0 [02A338CA] [4657369D]


Трекер:  [ 04-Авг-2012 15:43 ]

  

Скачать .torrent

Размер .torrent файла 13 KB


Размер: 635 MB
Хэш (hash) релиза: 3da55b37134b899568e47d57ddd6246f8801b745

Еще никто не оставлял запись к записи скачать торрент Blue Oyster Cult - Extraterrestrial Live . Будь первым!

!Обратная связь