Скачать через торрент музыку Styx - Chronicles: Crystal Ball The Grand Illusion бесплатно без регистрации torrent

Если у вас наблюдаются проблемы со скриншотами, переходом по ссылками, скачиванием торрентов - проблемы в блокировщике рекламы AdBlock. #хорошегоДня!


Статистика раздачи
Размер:  698 MB   |    Зарегистрирован:  5 лет   |    .torrent скачан:  29 раз   |   
Раздают:  1  
   
Загрузка...
 
Автор Сообщение

_N_

avatar _N_


Styx / Chronicles: Crystal Ball / The Grand Illusion / Pieces of Eight (3CD BoxSet)

Жанр: Classic Rock
Страна-производитель диска: USA
Год издания: 2005
Издатель (лейбл): A&M Records
Номер по каталогу: B0004620-02
Страна: USA
Аудиокодек: FLAC (*.flac)
Тип рипа: image+.cue
Битрейт аудио: lossless
Продолжительность: 116 min
Источник (релизер): Собственная коллекция
Наличие сканов в содержимом раздачи: да
Треклист:

Crystal Ball
1. Put Me On
2. Mademoiselle
3. Jennifer
4. Crystal Ball
5. Shooz
6. This Old Man
7. Clair de Lune/Ballerina: Clair De Lune / Ballerina

The Grand Illusion
1. Grand Illusion, The
2. Fooling Yourself (The Angry Young Man)
3. Superstars
4. Come Sail Away
5. Miss America
6. Man in the Wilderness
7. Castle Walls
8. Grand Finale, The

Pieces of Eight
1. Great White Hope
2. I'm O.K.
3. Sing for the Day
4. Message, The
5. Lords of the Ring
6. Blue Collar Man (Long Nights)
7. Queen of Spades
8. Renegade
9. Pieces of Eight
10. Aku Aku
Crystal BallExact Audio Copy V1.0 beta 3 from 29. August 2011

Отчёт EAC об извлечении, выполненном 3. августа 2012, 20:47

Styx / Crystal Ball

Дисковод: Optiarc DVD RW AD-7690H Adapter: 4 ID: 0

Режим чтения : ДостоверностьИспользование точного потока : ДаОтключение кэша аудио : ДаИспользование указателей C2 : Нет

Коррекция смещения при чтении : 48Способность читать области Lead-in и Lead-out : НетЗаполнение пропущенных сэмплов тишиной : ДаУдаление блоков с тишиной в начале и конце : НетПри вычислениях CRC использовались нулевые сэмплы : ДаИнтерфейс : Встроенный Win32-интерфейс для Win NT/2000

Выходной формат : Пользовательский кодировщикВыбранный битрейт : 1024 kBit/sКачество : ВысокийДобавление ID3-тега : НетУтилита сжатия : C:\Program Files (x86)\Exact Audio Copy\Flac\flac.exeДополнительные параметры : -V -8 -T "Date=%year%" -T "Genre=%genre%" %source%

TOC извлечённого CD

Трек | Старт | Длительность | Начальный сектор | Конечный сектор --------------------------------------------------------------------- 1 | 0:00.32 | 4:55.73 | 32 | 22229 2 | 4:56.30 | 4:00.45 | 22230 | 40274 3 | 8:57.00 | 4:18.17 | 40275 | 59641 4 | 13:15.17 | 4:34.03 | 59642 | 80194 5 | 17:49.20 | 4:49.30 | 80195 | 101899 6 | 22:38.50 | 5:10.57 | 101900 | 125206 7 | 27:49.32 | 7:09.00 | 125207 | 157381

Характеристики диапазона извлечения и сообщения об ошибках

Выбранный диапазон

Имя файла C:\Users\Толик\Desktop\Styx - Chronicles (3 Classic Albums) 2005\1976 - Crystal Ball\Styx - Crystal Ball.wav

Пиковый уровень 88.1 % Скорость извлечения 1.7 X Качество диапазона 100.0 % CRC теста A5BFF142 CRC копии A5BFF142 Копирование... OK

Ошибок не произошло

AccurateRip: сводка

Трек 1 : извлечено точно (доверие 2) [671B103F] (AR v2)Трек 2 : извлечено точно (доверие 2) [13BC2B9D] (AR v2)Трек 3 : извлечено точно (доверие 2) [D19D098F] (AR v2)Трек 4 : извлечено точно (доверие 2) [427C4737] (AR v2)Трек 5 : извлечено точно (доверие 2) [2A76A7AB] (AR v2)Трек 6 : извлечено точно (доверие 2) [4CEA8A1D] (AR v2)Трек 7 : извлечено точно (доверие 2) [E98AF183] (AR v2)

Все треки извлечены точно

Конец отчёта

==== Контрольная сумма отчёта AFEFA48895DF3DFE441D68F28C4F6EBE6F65669E6160761865E4FC69CB78324F ====

The Grand IllusionExact Audio Copy V1.0 beta 3 from 29. August 2011

Отчёт EAC об извлечении, выполненном 3. августа 2012, 21:16

Styx / The Grand Illusion

Дисковод: Optiarc DVD RW AD-7690H Adapter: 4 ID: 0

Режим чтения : ДостоверностьИспользование точного потока : ДаОтключение кэша аудио : ДаИспользование указателей C2 : Нет

Коррекция смещения при чтении : 48Способность читать области Lead-in и Lead-out : НетЗаполнение пропущенных сэмплов тишиной : ДаУдаление блоков с тишиной в начале и конце : НетПри вычислениях CRC использовались нулевые сэмплы : ДаИнтерфейс : Встроенный Win32-интерфейс для Win NT/2000

Выходной формат : Пользовательский кодировщикВыбранный битрейт : 1024 kBit/sКачество : ВысокийДобавление ID3-тега : НетУтилита сжатия : C:\Program Files (x86)\Exact Audio Copy\Flac\flac.exeДополнительные параметры : -V -8 -T "Date=%year%" -T "Genre=%genre%" %source%

TOC извлечённого CD

Трек | Старт | Длительность | Начальный сектор | Конечный сектор --------------------------------------------------------------------- 1 | 0:00.32 | 4:37.10 | 32 | 20816 2 | 4:37.42 | 5:31.65 | 20817 | 45706 3 | 10:09.32 | 3:55.08 | 45707 | 63339 4 | 14:04.40 | 6:07.00 | 63340 | 90864 5 | 20:11.40 | 5:02.12 | 90865 | 113526 6 | 25:13.52 | 5:50.65 | 113527 | 139841 7 | 31:04.42 | 5:58.65 | 139842 | 166756 8 | 37:03.32 | 1:57.40 | 166757 | 175571

Характеристики диапазона извлечения и сообщения об ошибках

Выбранный диапазон

Имя файла C:\Users\Толик\Desktop\Styx - Chronicles (3 Classic Albums) 2005\1977 - The Grand Illusion\Styx - The Grand Illusion.wav

Пиковый уровень 78.8 % Скорость извлечения 4.5 X Качество диапазона 99.9 % CRC теста 46C16E52 CRC копии 46C16E52 Копирование... OK

Ошибок не произошло

AccurateRip: сводка

Трек 1 : извлечено точно (доверие 3) [B77B8B59] (AR v2)Трек 2 : извлечено точно (доверие 2) [14E7D9C9] (AR v2)Трек 3 : извлечено точно (доверие 3) [7A898146] (AR v2)Трек 4 : извлечено точно (доверие 3) [2D3B925A] (AR v2)Трек 5 : извлечено точно (доверие 3) [CDEA3958] (AR v2)Трек 6 : извлечено точно (доверие 2) [B2C8E7A0] (AR v2)Трек 7 : извлечено точно (доверие 2) [41FA934F] (AR v2)Трек 8 : извлечено точно (доверие 3) [9CA05DF6] (AR v2)

Все треки извлечены точно

Конец отчёта

==== Контрольная сумма отчёта 4CE1FC7F17255E7CB7A181C4E708F4E52BE5AA75A5DF9FECF3AE0D70BEAD93C1 ====

Pieces of EightExact Audio Copy V1.0 beta 3 from 29. August 2011

Отчёт EAC об извлечении, выполненном 3. августа 2012, 21:38

Styx / Pieces Of Eight

Дисковод: Optiarc DVD RW AD-7690H Adapter: 4 ID: 0

Режим чтения : ДостоверностьИспользование точного потока : ДаОтключение кэша аудио : ДаИспользование указателей C2 : Нет

Коррекция смещения при чтении : 48Способность читать области Lead-in и Lead-out : НетЗаполнение пропущенных сэмплов тишиной : ДаУдаление блоков с тишиной в начале и конце : НетПри вычислениях CRC использовались нулевые сэмплы : ДаИнтерфейс : Встроенный Win32-интерфейс для Win NT/2000

Выходной формат : Пользовательский кодировщикВыбранный битрейт : 1024 kBit/sКачество : ВысокийДобавление ID3-тега : НетУтилита сжатия : C:\Program Files (x86)\Exact Audio Copy\Flac\flac.exeДополнительные параметры : -V -8 -T "Date=%year%" -T "Genre=%genre%" %source%

TOC извлечённого CD

Трек | Старт | Длительность | Начальный сектор | Конечный сектор --------------------------------------------------------------------- 1 | 0:00.32 | 4:23.40 | 32 | 19796 2 | 4:23.72 | 5:44.30 | 19797 | 45626 3 | 10:08.27 | 5:01.15 | 45627 | 68216 4 | 15:09.42 | 1:08.00 | 68217 | 73316 5 | 16:17.42 | 4:35.00 | 73317 | 93941 6 | 20:52.42 | 4:07.28 | 93942 | 112494 7 | 24:59.70 | 5:41.00 | 112495 | 138069 8 | 30:40.70 | 4:17.17 | 138070 | 157361 9 | 34:58.12 | 4:44.10 | 157362 | 178671 10 | 39:42.22 | 2:56.70 | 178672 | 191941

Характеристики диапазона извлечения и сообщения об ошибках

Выбранный диапазон

Имя файла C:\Users\Толик\Desktop\Styx - Chronicles (3 Classic Albums) 2005\1978 - Pieces Of Eight\Styx - Pieces Of Eight.wav

Пиковый уровень 93.8 % Скорость извлечения 4.7 X Качество диапазона 100.0 % CRC теста C7236180 CRC копии C7236180 Копирование... OK

Ошибок не произошло

AccurateRip: сводка

Трек 1 : извлечено точно (доверие 2) [CC55099B] (AR v2)Трек 2 : извлечено точно (доверие 2) [BA196B54] (AR v2)Трек 3 : извлечено точно (доверие 2) [F9E859EC] (AR v2)Трек 4 : извлечено точно (доверие 2) [B3558390] (AR v2)Трек 5 : извлечено точно (доверие 2) [4DAB598D] (AR v2)Трек 6 : извлечено точно (доверие 2) [27ABDC9F] (AR v2)Трек 7 : извлечено точно (доверие 2) [09E032E9] (AR v2)Трек 8 : извлечено точно (доверие 2) [26392388] (AR v2)Трек 9 : извлечено точно (доверие 2) [AC41DEE0] (AR v2)Трек 10 : извлечено точно (доверие 2) [F7B16A19] (AR v2)

Все треки извлечены точно

Конец отчёта

==== Контрольная сумма отчёта 13912CA5825D20BC985CA1A489DD97198D4054F7BDE3D075E931BAF7CA5AEBEE ====
Crystal BallREM GENRE RockREM DATE 1976REM DISCID 5F083207REM COMMENT "ExactAudioCopy v1.0b3"PERFORMER "Styx"TITLE "Crystal Ball"FILE "Styx - Crystal Ball.flac" WAVE TRACK 01 AUDIO TITLE "Put Me On" PERFORMER "Styx" INDEX 00 00:00:00 INDEX 01 00:00:32 TRACK 02 AUDIO TITLE "Mademoiselle" PERFORMER "Styx" INDEX 01 04:56:30 TRACK 03 AUDIO TITLE "Jennifer" PERFORMER "Styx" INDEX 00 08:53:72 INDEX 01 08:57:00 TRACK 04 AUDIO TITLE "Crystal Ball" PERFORMER "Styx" INDEX 00 13:13:40 INDEX 01 13:15:17 TRACK 05 AUDIO TITLE "Shooz" PERFORMER "Styx" INDEX 00 17:47:15 INDEX 01 17:49:20 TRACK 06 AUDIO TITLE "This Old Man" PERFORMER "Styx" INDEX 00 22:33:60 INDEX 01 22:38:50 TRACK 07 AUDIO TITLE "Clair De Lune/Ballerina" PERFORMER "Styx" INDEX 01 27:49:32

The Grand IllusionREM GENRE RockREM DATE 1977REM DISCID 61092408REM COMMENT "ExactAudioCopy v1.0b3"PERFORMER "Styx"TITLE "The Grand Illusion"FILE "Styx - The Grand Illusion.flac" WAVE TRACK 01 AUDIO TITLE "The Grand Illusion" PERFORMER "Styx" INDEX 00 00:00:00 INDEX 01 00:00:32 TRACK 02 AUDIO TITLE "Fooling Yourself-The Angry Young Man" PERFORMER "Styx" INDEX 00 04:35:15 INDEX 01 04:37:42 TRACK 03 AUDIO TITLE "Superstars" PERFORMER "Styx" INDEX 00 10:05:60 INDEX 01 10:09:32 TRACK 04 AUDIO TITLE "Come Sail Away" PERFORMER "Styx" INDEX 00 14:01:17 INDEX 01 14:04:40 TRACK 05 AUDIO TITLE "Miss America" PERFORMER "Styx" INDEX 00 20:09:47 INDEX 01 20:11:40 TRACK 06 AUDIO TITLE "Man in the Wilderness" PERFORMER "Styx" INDEX 00 25:11:20 INDEX 01 25:13:52 TRACK 07 AUDIO TITLE "Castle Walls" PERFORMER "Styx" INDEX 00 31:01:32 INDEX 01 31:04:42 TRACK 08 AUDIO TITLE "The Grand Finale" PERFORMER "Styx" INDEX 01 37:03:32

Pieces of EightREM GENRE RockREM DATE 1978REM DISCID 7009FF0AREM COMMENT "ExactAudioCopy v1.0b3"PERFORMER "Styx"TITLE "Pieces Of Eight"FILE "Styx - Pieces Of Eight.flac" WAVE TRACK 01 AUDIO TITLE "Great White Hope" PERFORMER "Styx" INDEX 00 00:00:00 INDEX 01 00:00:32 TRACK 02 AUDIO TITLE "I'm Okay" PERFORMER "Styx" INDEX 00 04:23:07 INDEX 01 04:23:72 TRACK 03 AUDIO TITLE "Sing For The Day" PERFORMER "Styx" INDEX 00 10:05:40 INDEX 01 10:08:27 TRACK 04 AUDIO TITLE "The Message" PERFORMER "Styx" INDEX 00 15:05:40 INDEX 01 15:09:42 TRACK 05 AUDIO TITLE "Lords Of The Ring" PERFORMER "Styx" INDEX 00 16:17:30 INDEX 01 16:17:42 TRACK 06 AUDIO TITLE "Blue Collar Man (Long Nights)" PERFORMER "Styx" INDEX 00 20:51:12 INDEX 01 20:52:42 TRACK 07 AUDIO TITLE "Queen Of Spades" PERFORMER "Styx" INDEX 00 24:57:70 INDEX 01 24:59:70 TRACK 08 AUDIO TITLE "Renegade" PERFORMER "Styx" INDEX 00 30:37:55 INDEX 01 30:40:70 TRACK 09 AUDIO TITLE "Pieces Of Eight" PERFORMER "Styx" INDEX 00 34:53:65 INDEX 01 34:58:12 TRACK 10 AUDIO TITLE "Aku-Aku" PERFORMER "Styx" INDEX 01 39:42:22


Трекер:  [ 04-Авг-2012 15:44 ]

  

Скачать .torrent

Размер .torrent файла 15 KB


Размер: 698 MB
Хэш (hash) релиза: 891fd79a38e7070120e952b41d6d102dbe716552

Еще никто не оставлял запись к записи скачать торрент Styx - Chronicles: Crystal Ball The Grand Illusion . Будь первым!

!Обратная связь