Скачать через торрент музыку Foreigner - Inside Information бесплатно без регистрации torrent

Если у вас наблюдаются проблемы со скриншотами, переходом по ссылками, скачиванием торрентов - проблемы в блокировщике рекламы AdBlock. #хорошегоДня!


Статистика раздачи
Размер:  409 MB   |    Зарегистрирован:  5 лет   |    .torrent скачан:  14 раз   |   
Раздают:  1  
   
Загрузка...
 
Автор Сообщение

_N_

avatar _N_


Foreigner - Inside Information

Жанр: Arena Rock/AOR
Страна-производитель диска: USA
Год издания: 1987
Издатель (лейбл): Atlantic
Номер по каталогу: A2 81808
Страна: UK / USA
Аудиокодек: FLAC (*.flac)
Тип рипа: image+.cue
Битрейт аудио: lossless
Продолжительность: 44:43
Источник (релизер): Stripakulina
Наличие сканов в содержимом раздачи: да, TIFF 600 DPI.

Треклист:
01. Heart Turns To Stone (4:34)
02. Can't Wait (4:31)
03. Say You Will (4:15)
04. I Don't Want To Live Without You (4:56)
05. Counting Every Minute (4:12)
06. Inside Information (4:12)
07. The Beat Of My Heart (5:13)
08. Face To Face (3:56)
09. Out Of The Blue (4:44)
10. A Night To Remember (4:09)
Exact Audio Copy V1.0 beta 3 from 29. August 2011

Отчёт EAC об извлечении, выполненном 3. августа 2012, 14:46

Foreigner / Inside Information [Atlantic A2 81808]

Дисковод: PLEXTOR CD-R PREMIUM2 Adapter: 0 ID: 0

Режим чтения : ДостоверностьИспользование точного потока : ДаОтключение кэша аудио : ДаИспользование указателей C2 : Нет

Коррекция смещения при чтении : 30Способность читать области Lead-in и Lead-out : ДаЗаполнение пропущенных сэмплов тишиной : ДаУдаление блоков с тишиной в начале и конце : НетПри вычислениях CRC использовались нулевые сэмплы : ДаИнтерфейс : Встроенный Win32-интерфейс для Win NT/2000

Выходной формат : Внутренние WAV-операцииФормат сэмплов : 44.100 Гц; 16 бит; стерео

TOC извлечённого CD

Трек | Старт | Длительность | Начальный сектор | Конечный сектор --------------------------------------------------------------------- 1 | 0:00.32 | 4:33.50 | 32 | 20556 2 | 4:34.07 | 4:31.25 | 20557 | 40906 3 | 9:05.32 | 4:14.70 | 40907 | 60026 4 | 13:20.27 | 4:56.08 | 60027 | 82234 5 | 18:16.35 | 4:12.00 | 82235 | 101134 6 | 22:28.35 | 4:12.37 | 101135 | 120071 7 | 26:40.72 | 5:12.48 | 120072 | 143519 8 | 31:53.45 | 3:56.20 | 143520 | 161239 9 | 35:49.65 | 4:44.30 | 161240 | 182569 10 | 40:34.20 | 4:08.40 | 182570 | 201209

Характеристики диапазона извлечения и сообщения об ошибках

Выбранный диапазон

Имя файла F:\For http://рутраскер\Foreigner - Inside Information [USA Atlantic A2 81808] - 1987\Foreigner - Inside Information [Atlantic A2 81808].wav

Пиковый уровень 100.0 % Скорость извлечения 6.4 X Качество диапазона 100.0 % CRC теста 53CCC2F1 CRC копии 53CCC2F1 Копирование... OK

Ошибок не произошло

AccurateRip: сводка

Трек 1 : извлечено точно (доверие 3) [24F5CB53] (AR v2)Трек 2 : извлечено точно (доверие 3) [A9E8A69F] (AR v2)Трек 3 : извлечено точно (доверие 3) [95C28055] (AR v2)Трек 4 : извлечено точно (доверие 3) [8F8F0FF3] (AR v2)Трек 5 : извлечено точно (доверие 3) [9494E35C] (AR v2)Трек 6 : извлечено точно (доверие 3) [56410490] (AR v2)Трек 7 : извлечено точно (доверие 3) [1487D6C4] (AR v2)Трек 8 : извлечено точно (доверие 3) [A65C1545] (AR v2)Трек 9 : извлечено точно (доверие 3) [EA20ECA8] (AR v2)Трек 10 : извлечено точно (доверие 3) [81ABFF7A] (AR v2)

Все треки извлечены точно

Конец отчёта

---- CUETools DB Plugin V2.1.4

[CTDB TOCID: .wXBo5uwzMjORTgJB1hZKCYjD28-] foundSubmit result: .wXBo5uwzMjORTgJB1hZKCYjD28- has been confirmedTrack | CTDB Status 1 | (1/1) Accurately ripped 2 | (1/1) Accurately ripped 3 | (1/1) Accurately ripped 4 | (1/1) Accurately ripped 5 | (1/1) Accurately ripped 6 | (1/1) Accurately ripped 7 | (1/1) Accurately ripped 8 | (1/1) Accurately ripped 9 | (1/1) Accurately ripped 10 | (1/1) Accurately ripped

==== Контрольная сумма отчёта C81C5027FB45491C35AA880521668F5CB0558F2EB68841F0FFA454DABA0EDD56 ====
[CUETools log; Date: 03.08.2012 14:55:41; Version: 2.1.4]Pregap length 00:00:32.[AccurateRip ID: 0010fda1-0087d0ba-770a7a0a] found.Track [ CRC | V2 ] Status 01 [12f89dce|24f5cb53] (028+003/206) Accurately ripped 02 [c190d508|a9e8a69f] (029+003/212) Accurately ripped 03 [9e7ee0ae|95c28055] (028+003/209) Accurately ripped 04 [021da815|8f8f0ff3] (029+003/210) Accurately ripped 05 [88464190|9494e35c] (029+003/211) Accurately ripped 06 [0551194a|56410490] (029+003/212) Accurately ripped 07 [f685f187|1487d6c4] (027+003/208) Accurately ripped 08 [786b7fc4|a65c1545] (026+003/210) Accurately ripped 09 [9e106196|ea20eca8] (026+003/209) Accurately ripped 10 [d172ef37|81abff7a] (026+003/206) Accurately rippedOffsetted by -641: 01 [a0dfe2a0] (005/206) Accurately ripped 02 [7b1c949e] (005/212) Accurately ripped 03 [059d7360] (005/209) Accurately ripped 04 [43276051] (005/210) Accurately ripped 05 [8d9de58f] (005/211) Accurately ripped 06 [eafdeaf7] (005/212) Accurately ripped 07 [6eb8f32c] (005/208) Accurately ripped 08 [0ce26045] (005/210) Accurately ripped 09 [88cf125e] (005/209) Accurately ripped 10 [6d7724d3] (005/206) Accurately rippedOffsetted by -258: 01 [bfe7df72] (007/206) Accurately ripped 02 [db85fc34] (007/212) Accurately ripped 03 [4b653e12] (007/209) Accurately ripped 04 [b3a8288d] (007/210) Accurately ripped 05 [355b8d8e] (007/211) Accurately ripped 06 [e92608a4] (007/212) Accurately ripped 07 [8e5760d1] (007/208) Accurately ripped 08 [71e13cc6] (007/210) Accurately ripped 09 [d89aa326] (007/209) Accurately ripped 10 [82468b3b] (007/206) Accurately rippedOffsetted by -122: 01 [2d2e37e2] (076/206) Accurately ripped 02 [e1af6c84] (078/212) Accurately ripped 03 [94f7b782] (077/209) Accurately ripped 04 [63f5f8ad] (077/210) Accurately ripped 05 [72ed1a16] (079/211) Accurately ripped 06 [c46668bc] (077/212) Accurately ripped 07 [1c93a529] (076/208) Accurately ripped 08 [55934c3e] (078/210) Accurately ripped 09 [960658e6] (079/209) Accurately ripped 10 [30cd1ac6] (075/206) Accurately rippedOffsetted by -102: 01 [8103db7a] (020/206) Accurately ripped 02 [3cf1c0cc] (023/212) Accurately ripped 03 [a751059a] (024/209) Accurately ripped 04 [7de34bfd] (023/210) Accurately ripped 05 [1a19182a] (022/211) Accurately ripped 06 [a0e0d138] (023/212) Accurately ripped 07 [8bd8be45] (023/208) Accurately ripped 08 [8da5f42a] (024/210) Accurately ripped 09 [4fff9946] (023/209) Accurately ripped 10 [dab527d8] (023/206) Accurately rippedOffsetted by -12: 01 [7a453ba6] (014/206) Accurately ripped 02 [579c3c10] (014/212) Accurately ripped 03 [f9e2e506] (014/209) Accurately ripped 04 [f28f42e5] (015/210) Accurately ripped 05 [8a5f0f84] (015/211) Accurately ripped 06 [8107a766] (015/212) Accurately ripped 07 [808faf43] (015/208) Accurately ripped 08 [89f9e7d0] (015/210) Accurately ripped 09 [94e13af6] (015/209) Accurately ripped 10 [5835ec33] (015/206) Accurately rippedOffsetted by 102: 01 [a4ed6022] (018/206) Accurately ripped 02 [462fe944] (018/212) Accurately ripped 03 [95acbbc2] (016/209) Accurately ripped 04 [8658042d] (018/210) Accurately ripped 05 [f6736af6] (017/211) Accurately ripped 06 [69c1615c] (018/212) Accurately ripped 07 [613324c9] (017/208) Accurately ripped 08 [63310b5e] (018/210) Accurately ripped 09 [ec2129e6] (018/209) Accurately ripped 10 [cce78d71] (018/206) Accurately rippedOffsetted by 935: 01 [a23c3dd0] (007/206) Accurately ripped 02 [2bedb92e] (007/212) Accurately ripped 03 [784de390] (007/209) Accurately ripped 04 [3e349ef1] (007/210) Accurately ripped 05 [cf8ee7b7] (007/211) Accurately ripped 06 [c8abadef] (007/212) Accurately ripped 07 [48644764] (007/208) Accurately ripped 08 [b5d3aa1d] (007/210) Accurately ripped 09 [9454e31e] (007/209) Accurately ripped 10 [9d77a1e4] (006/206) Accurately rippedOffsetted by -128: 01 [60d486ce] (003/206) Accurately ripped 02 [acb52008] (003/212) Accurately ripped 03 [c2a9b9ae] (003/209) Accurately ripped 04 [5c2ec615] (000/210) No match (V2 was not tested) 05 [f3f98110] (003/211) Accurately ripped 06 [8241afca] (003/212) Accurately ripped 07 [61988407] (003/208) Accurately ripped 08 [de5a8044] (003/210) Accurately ripped 09 [916ec596] (003/209) Accurately ripped 10 [faa0339a] (003/206) Accurately ripped

Track Peak [ CRC32 ] [W/O NULL] [ LOG ] -- 100,0 [53CCC2F1] [43390136] CRC32 01 100,0 [DA524A03] [70A8C3FD] 02 95,1 [B96DC063] [91E0DC93] 03 82,9 [85FDEB88] [4C6B06C9] 04 74,0 [98235B95] [DA7CBE06] 05 91,7 [F39C6817] [41896DEF] 06 94,9 [37697F63] [4E6CB727] 07 94,5 [01453091] [ED0EECB6] 08 100,0 [E9CEF2C1] [A849D5D1] 09 76,0 [9DA9E7D4] [4C8B8ABA] 10 93,1 [BE59BE48] [C2BDF955]


Трекер:  [ 04-Авг-2012 15:44 ]

  

Скачать .torrent

Размер .torrent файла 17 KB


Размер: 409 MB
Хэш (hash) релиза: bbe060d5b9cb6aa9917fcbeabd9cdc3615469c88

Еще никто не оставлял запись к записи скачать торрент Foreigner - Inside Information . Будь первым!

!Обратная связь