Скачать через торрент музыку Pink Floyd - A Foot In The Door: The Best Of Pink Floyd бесплатно без регистрации torrent

Если у вас наблюдаются проблемы со скриншотами, переходом по ссылками, скачиванием торрентов - проблемы в блокировщике рекламы AdBlock. #хорошегоДня!


Статистика раздачи
Размер:  808 MB   |    Зарегистрирован:  5 лет   |    .torrent скачан:  74 раза   |   
Раздают:  1  
   
Загрузка...
 
Автор Сообщение

L


Pink Floyd - A Foot In The Door: The Best Of Pink Floyd

Жанр: Progressive Rock
Страна-производитель диска: EU
Год издания диска: 2011
Издатель (лейбл): EMI
Номер по каталогу: 50999 028966 2 5
Страна: UK
Аудио кодек: FLAC
Тип рипа: image+.cue
Битрейт аудио: lossless
Продолжительность: 79:38
Источник (релизер): dafnaplus
Наличие сканов в содержимом раздачи: да
Трэклист:
01. Hey You 4:41
02. See Emily Play 2:49
03. The Happiest Days Of Our Lives 1:33
04. Another Brick In The Wall (Part 2) 3:49
05. Have A Cigar 5:09
06. Wish You Were Here 5:05
07. Time 6:20
08. The Great Gig In The Sky 4:36
09. Money 6:34
10. Comfortably Numb 6:19
11. High Hopes 6:55
12. Learning To Fly 4:50
13. The Fletcher Memorial Home 4:11
14. Shine On You Crazy Diamond 11:06
15. Brain Damage 3:47
16. Eclipse 1:54
  
Exact Audio Copy V1.0 beta 3 from 29. August 2011

EAC extraction logfile from 28. July 2012, 17:50

Pink Floyd / A Foot In The Door:The Best Of Pink Floyd (50999 028966 2 5)

Used drive : PIONEER DVD-RW DVR-219L Adapter: 2 ID: 0

Read mode : SecureUtilize accurate stream : YesDefeat audio cache : YesMake use of C2 pointers : No

Read offset correction : 6Overread into Lead-In and Lead-Out : NoFill up missing offset samples with silence : YesDelete leading and trailing silent blocks : NoNull samples used in CRC calculations : YesUsed interface : Native Win32 interface for Win NT & 2000

Used output format : User Defined EncoderSelected bitrate : 1024 kBit/sQuality : HighAdd ID3 tag : NoCommand line compressor : C:\Program Files\Exact Audio Copy\Flac\flac.exeAdditional command line options : -V -8 -T "Genre=%genre%" -T "Artist=%artist%" -T "Title=%title%" -T "Album=%albumtitle%" -T "Date=%year%" -T "Tracknumber=%tracknr%" -T "Comment=%comment%" %source%

TOC of the extracted CD

Track | Start | Length | Start sector | End sector --------------------------------------------------------- 1 | 0:00.00 | 4:40.71 | 0 | 21070 2 | 4:40.71 | 2:48.54 | 21071 | 33724 3 | 7:29.50 | 1:32.53 | 33725 | 40677 4 | 9:02.28 | 3:48.68 | 40678 | 57845 5 | 12:51.21 | 5:08.41 | 57846 | 80986 6 | 17:59.62 | 5:05.28 | 80987 | 103889 7 | 23:05.15 | 6:20.36 | 103890 | 132425 8 | 29:25.51 | 4:36.04 | 132426 | 153129 9 | 34:01.55 | 6:34.11 | 153130 | 182690 10 | 40:35.66 | 6:19.37 | 182691 | 211152 11 | 46:55.28 | 6:55.32 | 211153 | 242309 12 | 53:50.60 | 4:49.57 | 242310 | 264041 13 | 58:40.42 | 4:11.07 | 264042 | 282873 14 | 62:51.49 | 11:05.40 | 282874 | 332788 15 | 73:57.14 | 3:46.52 | 332789 | 349790 16 | 77:43.66 | 1:53.44 | 349791 | 358309

Range status and errors

Selected range

Filename H:\dafnaplus\Pink Floyd - A Foot In The Door (The Best Of Pink Floyd)\Pink Floyd - A Foot In The Door-The Best Of Pink Floyd (50999 028966 2 5).wav

Peak level 94.3 % Extraction speed 1.9 X Range quality 99.9 % Test CRC 606624A5 Copy CRC 606624A5 Copy OK

No errors occurred

AccurateRip summary

Track 1 accurately ripped (confidence 8) [1C9B7585] (AR v2)Track 2 accurately ripped (confidence 8) [58A8F4B0] (AR v2)Track 3 accurately ripped (confidence 8) [F26CE8E9] (AR v2)Track 4 accurately ripped (confidence 8) [F52B0E1C] (AR v2)Track 5 accurately ripped (confidence 8) [A66DCC23] (AR v2)Track 6 accurately ripped (confidence 8) [A8EE0B72] (AR v2)Track 7 accurately ripped (confidence 8) [3628471E] (AR v2)Track 8 accurately ripped (confidence 8) [FA2073F9] (AR v2)Track 9 accurately ripped (confidence 8) [54D7FCEA] (AR v2)Track 10 accurately ripped (confidence 8) [93F2F86E] (AR v2)Track 11 accurately ripped (confidence 8) [333F2DCB] (AR v2)Track 12 accurately ripped (confidence 8) [05E9A33C] (AR v2)Track 13 accurately ripped (confidence 8) [FE4922EB] (AR v2)Track 14 accurately ripped (confidence 8) [EEA4C8D8] (AR v2)Track 15 accurately ripped (confidence 8) [8218EC2B] (AR v2)Track 16 accurately ripped (confidence 8) [F53F91ED] (AR v2)

All tracks accurately ripped

End of status report

==== Log checksum FA98F24EA0618D93CC15389E997A18D4ABB134A3D2127AC30DDE042E995602DE ====
  
REM DATE 2011REM DISCID E612A910REM COMMENT "ExactAudioCopy v1.0b3"PERFORMER "Pink Floyd"TITLE "A Foot In The Door:The Best Of Pink Floyd (50999 028966 2 5)"FILE "Pink Floyd - A Foot In The Door-The Best Of Pink Floyd (50999 028966 2 5).flac" WAVE TRACK 01 AUDIO TITLE "Hey You" PERFORMER "Pink Floyd" ISRC GBN9Y1100108 INDEX 01 00:00:00 TRACK 02 AUDIO TITLE "See Emily Play" PERFORMER "Pink Floyd" ISRC GBN9Y1100134 INDEX 01 04:40:71 TRACK 03 AUDIO TITLE "The Happiest Days Of Our Lives" PERFORMER "Pink Floyd" ISRC GBN9Y1100098 INDEX 01 07:29:50 TRACK 04 AUDIO TITLE "Another Brick In The Wall (Part 2)" PERFORMER "Pink Floyd" ISRC GBN9Y1100099 INDEX 01 09:02:28 TRACK 05 AUDIO TITLE "Have A Cigar" PERFORMER "Pink Floyd" ISRC GBN9Y1100087 INDEX 01 12:51:21 TRACK 06 AUDIO TITLE "Wish You Were Here" PERFORMER "Pink Floyd" ISRC GBN9Y1100088 INDEX 01 17:59:62 TRACK 07 AUDIO TITLE "Time" PERFORMER "Pink Floyd" ISRC GBN9Y1100141 INDEX 01 23:05:15 TRACK 08 AUDIO TITLE "The Great Gig In The Sky" PERFORMER "Pink Floyd" ISRC GBN9Y1100080 INDEX 01 29:25:51 TRACK 09 AUDIO TITLE "Money" PERFORMER "Pink Floyd" ISRC GBN9Y1100081 INDEX 01 34:01:55 TRACK 10 AUDIO TITLE "Comfortably Numb" PERFORMER "Pink Floyd" ISRC GBN9Y1100113 INDEX 01 40:35:66 TRACK 11 AUDIO TITLE "High Hopes" PERFORMER "Pink Floyd" ISRC GBN9X1100023 INDEX 01 46:55:28 TRACK 12 AUDIO TITLE "Learning To Fly" PERFORMER "Pink Floyd" ISRC GBN9X1100002 INDEX 01 53:50:60 TRACK 13 AUDIO TITLE "The Fletcher Memorial Home" PERFORMER "Pink Floyd" ISRC GBN9Y1100129 INDEX 01 58:40:42 TRACK 14 AUDIO TITLE "Shine On You Crazy Diamond" PERFORMER "Pink Floyd" ISRC GBN9Y1100142 INDEX 01 62:51:49 TRACK 15 AUDIO TITLE "Brain Damage" PERFORMER "Pink Floyd" ISRC GBN9Y1100140 INDEX 01 73:57:14 TRACK 16 AUDIO TITLE "Eclipse" PERFORMER "Pink Floyd" ISRC GBN9Y1100084 INDEX 01 77:43:66


Трекер:  [ 30-Июл-2012 06:53 ]

  

Скачать .torrent

Размер .torrent файла 17 KB


Размер: 808 MB
Хэш (hash) релиза: fa51bafcffe7d62b121889334e5ca3c83cedc766

Торренты, похожие на Pink Floyd - A Foot In The Door: The Best Of Pink Floyd скачать торрент

Форум Название Автор Размер S L Добавлен
Rосk | Mеtаl | Аltеrnаtivе, Рunk, Indереndеnt (losslеss) ·· (Progressive Rock) Pink Floyd - A Foot in the Door-The Best of Pink Floyd - 2011, FLAC (image+.cue), lossless _N_ 783958769748 MB 0 0 1328854198

09:09

10-Фев-12

Rосk | Mеtаl | Аltеrnаtivе, Рunk, Indереndеnt (mр3) ·· (Progressive Rock, Psychedelic Rock) Pink Floyd - The Best Of Pink Floyd: A Foot In The Door - 2011, MP3, 320 kbps Mos 191145929182 MB 0 0 1321146074

04:01

13-Ноя-11

Rосk | Mеtаl | Аltеrnаtivе, Рunk, Indереndеnt (mр3) ·· (Progressive Rock) Pink Floyd - A Foot In The Door-The Best Of Pink Floyd - 2011, MP3, V0 Galfimbul 142327189136 MB 0 0 1320786075

00:01

9-Ноя-11

Еще никто не оставлял запись к записи скачать торрент Pink Floyd - A Foot In The Door: The Best Of Pink Floyd . Будь первым!

!Обратная связь